Правила форума

  • В этом разделе создание новых тем Запрещено.
  • Для создания новых тем пользуйтесь Корневым разделом DVD и HD фильмы.
Начать новую темуОтветить на тему  [ 1 сообщение ] 
Торрент файл
Размер: 7.65 GB • Зарегистрирован: 4 года 3 месяца • Статус: Проверено
Скачан: 14 раз • Желающих скачать: 0 • Поблагодарили: 6 раз
 Раздают: 0  |  0 KB/s  ]   Качают: 0  |  0 KB/s  ] 
 Полного источника не было 3 года 2 месяца 
Сообщения
 Добавлено: 2012-08-07 16:58
Top-releaser
Аватара пользователя
Стаж: 6 лет 7 месяцев
Сообщений: 2078
Спасибок: 3229
Лайков: 9
Изображение

К-19 / K-19: The Widowmaker


Год выпуска: 2002
Страна: США, Германия, Канада, Великобритания
Слоган: «Трагедия рождает героев»
Жанр: триллер, драма, военный, история
Продолжительность: 02:18:05
Перевод: Профессиональный (полное дублирование)
Режиссер: Кэтрин Бигелоу
Сценарий: Кристофер Кайл, Луис Наура
Продюсер: Кэтрин Бигелоу, Сигурйон Сигватссон, Крис Уайтакер, Эдвард С. Фельдман, Стивен-Чарльз Джаффе
Оператор: Джефф Кроненвет
Композитор: Клаус Бадельт
В ролях: Харрисон Форд, Лиам Нисон, Питер Сарсгаард, Сэм Спруэлл, Питер Стеббингс, Кристиан Камарго, Роман Подхора, Сэм Редфорд, Стив Николсон, Равиль Исянов, Тим Вудворд, Лекс Шрэпнел
Бюджет: $100 000 000
Сборы в мире: $65 716 126
Описание: Фильм основан на реальных событиях, произошедших с первой атомной советской подводной лодкой, которая потерпела аварию из-за неполадок в атомном реакторе в 1961 году. К-19 - это зримое свидетельство героизма русских моряков, которые служили на этой подводной лодке.
Фильм демонстрирует героизм капитана Алексея Вострикова, который в разгар холодной войны берет на себя командование атомной подводной лодкой К-19 вместо ее первого капитана Михаила Поленина. Миссия Вострикова - быстро подготовить подлодку к погружению, чего бы это ни стоило.
Но Востриков, Поленин и члены экипажа К-19 не могли себе вообразить всего, что от них ожидалось. Они не могли представить какой ценой обойдется для них стремительность подготовки субмарины к погружению
Изображение
Раздача группы: Изображение
Качество: BDRip, 720p
Формат: Matroska
Видео: AVC; 1280x546 (2.35:1); 6146 Kbps; 23,976 fps; 0,367 bit/pixel
Аудио №1: Russian; AC3; 448 Kbps; CBR; 6 ch
Аудио №2: Russian; AC3; 640 Kbps; CBR; 6 ch
Аудио №3: English; AC3; 640 Kbps; CBR; 6 ch
Аудио №4: English; AAC LC-SBR; 2 ch
Субтитры: Russian, English

"Знаете ли Вы, что..."
  • Реальная атомная подводная лодка К-19 признана одной из самых аварийных подводных лодок по причине того, что с ней произошло несколько значительных аварий, унесших жизни более 40 человек. За это К-19 получила прозвище «Хиросима».
Свернуть
MediaInfo
Общее
Уникальный идентификатор : 233619501823710174607068318345033342960 (0xAFC17ABAF995BF8CACE128AB1436DFF0)
Полное имя : Z:\WWW\TR-Downloads\K-19.The.Widowmaker.720p[R.G.Daredevil].mkv
Формат : Matroska
Версия формата : Version 2
Размер файла : 7,65 Гбайт
Продолжительность : 2 ч. 18 м.
Общий поток : 7935 Кбит/сек
Дата кодирования : UTC 2010-05-10 12:11:06
Программа кодирования : mkvmerge v2.9.7 ('Tenderness') built on Jul 1 2009 18:43:35
Библиотека кодирования : libebml v0.7.7 + libmatroska v0.8.1

Видео
Идентификатор : 1
Формат : AVC
Формат/Информация : Advanced Video Codec
Профиль формата : High@L4.1
Параметр CABAC формата : Да
Параметр ReFrames формата : 8 кадров
Идентификатор кодека : V_MPEG4/ISO/AVC
Продолжительность : 2 ч. 18 м.
Номинальный битрейт : 6146 Кбит/сек
Ширина : 1280 пикселей
Высота : 546 пикселей
Соотношение сторон : 2,35:1
Частота кадров : 23,976 кадра/сек
Цветовое пространство : YUV
Субдискретизация насыщенности : 4:2:0
Битовая глубина : 8 бит
Тип развёртки : Прогрессивная
Бит/(Пиксели*Кадры) : 0.367
Заголовок : K-19: The Widowmaker (2002) 720p BDRip-HDv0T
Библиотека кодирования : x264 core 94 r1570 d9db8b3
Настройки программы : cabac=1 / ref=8 / deblock=1:-3:-3 / analyse=0x3:0x113 / me=umh / subme=9 / psy=1 / psy_rd=1.00:0.20 / mixed_ref=1 / me_range=48 / chroma_me=1 / trellis=2 / 8x8dct=1 / cqm=0 / deadzone=21,11 / fast_pskip=0 / chroma_qp_offset=-3 / threads=6 / sliced_threads=0 / nr=0 / decimate=0 / interlaced=0 / constrained_intra=0 / bframes=6 / b_pyramid=2 / b_adapt=2 / b_bias=0 / direct=3 / wpredb=1 / wpredp=2 / keyint=250 / keyint_min=25 / scenecut=40 / intra_refresh=0 / rc=2pass / mbtree=0 / bitrate=6146 / ratetol=1.0 / qcomp=0.60 / qpmin=10 / qpmax=51 / qpstep=4 / cplxblur=20.0 / qblur=0.5 / ip_ratio=1.40 / pb_ratio=1.30 / aq=1:0.60
Язык : English
Default : Да
Forced : Нет

Аудио #1
Идентификатор : 2
Формат : AC-3
Формат/Информация : Audio Coding 3
Расширение режима : CM (complete main)
Параметр Endianness формата : Big
Идентификатор кодека : A_AC3
Продолжительность : 2 ч. 18 м.
Вид битрейта : Постоянный
Битрейт : 448 Кбит/сек
Каналы : 6 каналов
Расположение каналов : Front: L C R, Side: L R, LFE
Частота : 48,0 КГц
Битовая глубина : 16 бит
Метод сжатия : С потерями
Размер потока : 443 Мбайт (6%)
Заголовок : Dubl AC3 5.1 @ 448 kbps
Язык : Russian
Default : Да
Forced : Нет

Аудио #2
Идентификатор : 3
Формат : AC-3
Формат/Информация : Audio Coding 3
Расширение режима : CM (complete main)
Параметр Endianness формата : Big
Идентификатор кодека : A_AC3
Продолжительность : 2 ч. 18 м.
Вид битрейта : Постоянный
Битрейт : 640 Кбит/сек
Каналы : 6 каналов
Расположение каналов : Front: L C R, Side: L R, LFE
Частота : 48,0 КГц
Битовая глубина : 16 бит
Метод сжатия : С потерями
Размер потока : 632 Мбайт (8%)
Заголовок : Rudoi AC3 5.1 @ 640 kbps
Язык : Russian
Default : Нет
Forced : Нет

Аудио #3
Идентификатор : 4
Формат : AC-3
Формат/Информация : Audio Coding 3
Расширение режима : CM (complete main)
Параметр Endianness формата : Big
Идентификатор кодека : A_AC3
Продолжительность : 2 ч. 18 м.
Вид битрейта : Постоянный
Битрейт : 640 Кбит/сек
Каналы : 6 каналов
Расположение каналов : Front: L C R, Side: L R, LFE
Частота : 48,0 КГц
Битовая глубина : 16 бит
Метод сжатия : С потерями
Размер потока : 632 Мбайт (8%)
Заголовок : English AC3 5.1 @ 640 kbps
Язык : English
Default : Нет
Forced : Нет

Аудио #4
Идентификатор : 5
Формат : AAC
Формат/Информация : Advanced Audio Codec
Профиль формата : HE-AAC / LC
Идентификатор кодека : A_AAC
Продолжительность : 2 ч. 18 м.
Каналы : 2 канала
Расположение каналов : Front: L R
Частота : 48,0 КГц / 24,0 КГц
Метод сжатия : С потерями
Заголовок : Commentary AAC 2.0
Язык : English
Default : Нет
Forced : Нет

Текст #1
Идентификатор : 6
Формат : UTF-8
Идентификатор кодека : S_TEXT/UTF8
Идентификатор кодека/Информация : UTF-8 Plain Text
Заголовок : Rus
Язык : Russian
Default : Нет
Forced : Нет

Текст #2
Идентификатор : 7
Формат : UTF-8
Идентификатор кодека : S_TEXT/UTF8
Идентификатор кодека/Информация : UTF-8 Plain Text
Заголовок : Eng
Язык : English
Default : Нет
Forced : Нет

Меню
00:00:00.000 : en:00:00:00.000
00:09:01.416 : en:00:09:01.416
00:23:28.449 : en:00:23:28.449
00:30:02.968 : en:00:30:02.968
00:36:44.994 : en:00:36:44.994
00:44:42.847 : en:00:44:42.847
00:49:55.242 : en:00:49:55.242
00:56:44.901 : en:00:56:44.901
01:03:18.253 : en:01:03:18.253
01:09:37.840 : en:01:09:37.840
01:26:18.215 : en:01:26:18.215
01:35:12.790 : en:01:35:12.790
01:45:33.994 : en:01:45:33.994
01:54:40.165 : en:01:54:40.165
02:03:27.317 : en:02:03:27.317
02:09:20.670 : en:02:09:20.670
Свернуть
Скриншоты
Изображение
Изображение
Изображение
Изображение
Свернуть
Не в сети
Профиль  
Начать новую темуОтветить на тему  [ 1 сообщение ] 
Вы не можете начинать темы
Вы не можете отвечать на сообщения
Вы не можете редактировать свои сообщения
Вы не можете удалять свои сообщения