Правила форума

  • В этом разделе создание новых тем Запрещено.
  • Для создания новых тем пользуйтесь Корневым разделом DVD и HD фильмы.
Начать новую темуОтветить на тему  [ Сообщений: 2 ] 
Торрент файл
Размер: 13.47 GB • Зарегистрирован: 4 года 4 месяца • Статус: Проверено
Скачан: 64 раза • Желающих скачать: 0 • Поблагодарили: 22 раза
 Раздают: 2  |  0 KB/s  ]   Качают: 0  |  0 KB/s  ] 
Сообщения
 Добавлено: 2012-08-07 17:12
Top-releaser
Аватара пользователя
Стаж: 6 лет 7 месяцев
Сообщений: 2078
Спасибок: 3230
Лайков: 9
Изображение

К-19 / K-19: The Widowmaker


Год выпуска: 2002
Страна: США, Германия, Канада, Великобритания
Слоган: «Трагедия рождает героев»
Жанр: триллер, драма, военный, история
Продолжительность: 02:18:05
Перевод: Профессиональный (полное дублирование)
Режиссер: Кэтрин Бигелоу
Сценарий: Кристофер Кайл, Луис Наура
Продюсер: Кэтрин Бигелоу, Сигурйон Сигватссон, Крис Уайтакер, Эдвард С. Фельдман, Стивен-Чарльз Джаффе
Оператор: Джефф Кроненвет
Композитор: Клаус Бадельт
В ролях: Харрисон Форд, Лиам Нисон, Питер Сарсгаард, Сэм Спруэлл, Питер Стеббингс, Кристиан Камарго, Роман Подхора, Сэм Редфорд, Стив Николсон, Равиль Исянов, Тим Вудворд, Лекс Шрэпнел
Бюджет: $100 000 000
Сборы в мире: $65 716 126
Описание: Фильм основан на реальных событиях, произошедших с первой атомной советской подводной лодкой, которая потерпела аварию из-за неполадок в атомном реакторе в 1961 году. К-19 - это зримое свидетельство героизма русских моряков, которые служили на этой подводной лодке.
Фильм демонстрирует героизм капитана Алексея Вострикова, который в разгар холодной войны берет на себя командование атомной подводной лодкой К-19 вместо ее первого капитана Михаила Поленина. Миссия Вострикова - быстро подготовить подлодку к погружению, чего бы это ни стоило.
Но Востриков, Поленин и члены экипажа К-19 не могли себе вообразить всего, что от них ожидалось. Они не могли представить какой ценой обойдется для них стремительность подготовки субмарины к погружению
Изображение
Раздача группы: Изображение
Качество: BDRip, 1080p
Формат: Matroska
Видео: AVC; 1920x814 (2.35:1); 11723 Kbps; 23,976 fps; 0,313 bit/pixel
Аудио №1: Russian; AC3; 448 Kbps; CBR; 6 ch
Аудио №2: English; DTS; 1509 Kbps; CBR; 6 ch; 24 bit
Субтитры: Russian, English

"Знаете ли Вы, что..."
  • Реальная атомная подводная лодка К-19 признана одной из самых аварийных подводных лодок по причине того, что с ней произошло несколько значительных аварий, унесших жизни более 40 человек. За это К-19 получила прозвище «Хиросима».
Свернуть
MediaInfo
Общее
Уникальный идентификатор : 179484640401545820921097444416575287166 (0x87077BFE682A923D916A6153B394AF7E)
Полное имя : Z:\WWW\TR-Downloads\K-19.The.Widowmaker.1080p[R.G.Daredevil].mkv
Формат : Matroska
Версия формата : Version 2
Размер файла : 13,5 Гбайт
Продолжительность : 2 ч. 18 м.
Общий поток : 14,0 Мбит/сек
Дата кодирования : UTC 2010-05-08 14:26:09
Программа кодирования : mkvmerge v3.3.0 ('Language') built on Mar 24 2010 14:59:24
Библиотека кодирования : libebml v0.8.0 + libmatroska v0.9.0

Видео
Идентификатор : 1
Формат : AVC
Формат/Информация : Advanced Video Codec
Профиль формата : High@L4.1
Параметр CABAC формата : Да
Параметр ReFrames формата : 5 кадров
Идентификатор кодека : V_MPEG4/ISO/AVC
Продолжительность : 2 ч. 18 м.
Битрейт : 12,0 Мбит/сек
Ширина : 1920 пикселей
Высота : 814 пикселей
Соотношение сторон : 2,35:1
Частота кадров : 23,976 кадра/сек
Цветовое пространство : YUV
Субдискретизация насыщенности : 4:2:0
Битовая глубина : 8 бит
Тип развёртки : Прогрессивная
Бит/(Пиксели*Кадры) : 0.321
Размер потока : 11,3 Гбайт (84%)
Заголовок : K-19.The.Widowmaker.2002
Библиотека кодирования : x264 core 88 r1471 1144615
Настройки программы : cabac=1 / ref=5 / deblock=1:-3:-3 / analyse=0x3:0x113 / me=umh / subme=9 / psy=1 / psy_rd=1.05:0.10 / mixed_ref=1 / me_range=32 / chroma_me=1 / trellis=2 / 8x8dct=1 / cqm=2 / deadzone=21,11 / fast_pskip=0 / chroma_qp_offset=-2 / threads=12 / sliced_threads=0 / nr=0 / decimate=1 / mbaff=0 / constrained_intra=0 / bframes=3 / b_pyramid=2 / b_adapt=2 / b_bias=0 / direct=3 / wpredb=1 / wpredp=2 / keyint=250 / keyint_min=25 / scenecut=40 / intra_refresh=0 / rc_lookahead=50 / rc=2pass / mbtree=1 / bitrate=12020 / ratetol=2.0 / qcomp=0.70 / qpmin=10 / qpmax=51 / qpstep=4 / cplxblur=20.0 / qblur=0.5 / vbv_maxrate=50000 / vbv_bufsize=50000 / ip_ratio=1.40 / aq=1:1.00
Язык : English
Default : Нет
Forced : Нет

Аудио #1
Идентификатор : 2
Формат : AC-3
Формат/Информация : Audio Coding 3
Расширение режима : CM (complete main)
Параметр Endianness формата : Big
Идентификатор кодека : A_AC3
Продолжительность : 2 ч. 18 м.
Вид битрейта : Постоянный
Битрейт : 448 Кбит/сек
Каналы : 6 каналов
Расположение каналов : Front: L C R, Side: L R, LFE
Частота : 48,0 КГц
Битовая глубина : 16 бит
Метод сжатия : С потерями
Размер потока : 443 Мбайт (3%)
Язык : Russian
Default : Да
Forced : Нет

Аудио #2
Идентификатор : 3
Формат : DTS
Формат/Информация : Digital Theater Systems
Идентификатор кодека : A_DTS
Продолжительность : 2 ч. 18 м.
Вид битрейта : Постоянный
Битрейт : 1510 Кбит/сек
Каналы : 6 каналов
Расположение каналов : Front: L C R, Side: L R, LFE
Частота : 48,0 КГц
Битовая глубина : 24 бит
Метод сжатия : С потерями
Размер потока : 1,46 Гбайт (11%)
Язык : English
Default : Нет
Forced : Нет

Текст #1
Идентификатор : 4
Формат : UTF-8
Идентификатор кодека : S_TEXT/UTF8
Идентификатор кодека/Информация : UTF-8 Plain Text
Язык : Russian
Default : Нет
Forced : Нет

Текст #2
Идентификатор : 5
Формат : UTF-8
Идентификатор кодека : S_TEXT/UTF8
Идентификатор кодека/Информация : UTF-8 Plain Text
Язык : English
Default : Нет
Forced : Нет
Свернуть
Скриншоты
Изображение
Изображение
Изображение
Изображение
Изображение
Свернуть
Не в сети
Профиль  
 Добавлено: 2013-07-01 18:58 (спустя 10 месяцев)
Аватара пользователя
Стаж: 8 лет 9 месяцев
Сообщений: 499
Спасибок: 352
Лайков: 1
шедевр ! Качество на 5 ! Стою на раздаче
Не в сети
Профиль  
Начать новую темуОтветить на тему  [ Сообщений: 2 ] 
Вы не можете начинать темы
Вы не можете отвечать на сообщения
Вы не можете редактировать свои сообщения
Вы не можете удалять свои сообщения