Правила форума

  • В этом разделе создание новых тем Запрещено.
  • Для создания новых тем пользуйтесь Корневым разделом DVD и HD фильмы.
Начать новую темуОтветить на тему  [ 1 сообщение ] 
Торрент файл
Размер: 6.3 GB • Зарегистрирован: 4 года 3 месяца • Статус: Проверено
Скачан: 17 раз • Желающих скачать: 0 • Поблагодарили: 7 раз
 Раздают: 0  |  0 KB/s  ]   Качают: 0  |  0 KB/s  ] 
 Полного источника не было 2 месяца 22 дня 
Сообщения
 Добавлено: 2012-08-26 18:34
Инквизитор
Аватара пользователя
Стаж: 8 лет 8 месяцев
Сообщений: 3753
Спасибок: 28359
Лайков: 9
Изображение

Кафе де Флор
Cafe de Flore


Год выпуска: 2011
Страна: Канада, Франция
Слоган: «Il n'est pas facile de dire adieu а ceux qu'on aime; pour y parvenir, il faut parfois toute une vie - ou deux.»
Жанр: драма, мелодрама
Продолжительность: 02:00:45
Перевод: Оригинальный, Профессиональный (многоголосый, закадровый)
Режиссер: Жан-Марк Валли
Сценарий: Жан-Марк Валли
Продюсер: Пьер Ивен, Мари-Клод Пулен, Николя Копперманн, Ванесса Фурго, Николь Хиларги
Оператор: Пьер Коттро
В ролях: Ванесса Паради, Кевин Парент, Элен Флоран, Эвелин Брошу, Марен Герье, Элис Дюбуа, Эвелин де ла Шенельер, Мишель Дюмон, Линда Смит, Жоанни Корбей-Пише, Розали Фортье, Мишель Лаперьер
Бюджет: CAD 10 000 000
Сборы в России: $62 216
Мировая премьера: 2 сентября 2011
Релиз на DVD: 20 августа 2012, «Новый Диск»
Описание: История любви между мужчиной и женщиной, между матерью и сыном.

Изображение User Rating: 7.800 (986)
Изображение User Rating: 7.20 (2 588)
Релиз: Изображение Раздача группы: Изображение
Качество: BDRip, 720p
Формат: Matroska
Видео: AVC; 1280x546 (2.35:1); 6231 Kbps; 23,976 fps; 0,372 bit/pixel
Аудио №1: Russian; AC3; 448 Kbps; CBR; 2 ch
Аудио №2: French; AC3; 640 Kbps; CBR; 6 ch

Субтитры №1: Russian
Субтитры №2: English

mediainfo
Общее
Уникальный идентификатор                 : 249018383518834043902625374003434159274 (0xBB5732370789EA64BA02DBB19FACFCAA)
Полное имя                               : E:\Фильмы\Cafe.de.Flore.2011.720p.Bluray.Rus.Fre.HDCLUB.mkv
Формат                                   : Matroska
Версия формата                           : Version 2
Размер файла                             : 6,30 Гбайт
Продолжительность                        : 2 ч. 0 м.
Общий поток                              : 7469 Кбит/сек
Название фильма                          : Cafe de Flore (2011)-Release for HDCLUB
Дата кодирования                         : UTC 2012-08-25 13:52:56
Программа кодирования                    : mkvmerge v3.4.0 ('Rapunzel') сборка от May 15 2010 09:38:20
Библиотека кодирования                   : libebml v0.8.0 + libmatroska v0.9.0

Видео
Идентификатор                            : 1
Формат                                   : AVC
Формат/Информация                        : Advanced Video Codec
Профиль формата                          : High@L4.1
Параметр CABAC формата                   : Да
Параметр ReFrames формата                : 11 кадров
Идентификатор кодека                     : V_MPEG4/ISO/AVC
Продолжительность                        : 2 ч. 0 м.
Битрейт                                  : 6232 Кбит/сек
Ширина                                   : 1280 пикселей
Высота                                   : 546 пикселей
Соотношение сторон                       : 2,35:1
Частота кадров                           : 23,976 кадра/сек
Цветовое пространство                    : YUV
Субдискретизация насыщенности            : 4:2:0
Битовая глубина                          : 8 бит
Тип развёртки                            : Прогрессивная
Бит/(Пиксели*Кадры)                      : 0.372
Размер потока                            : 5,26 Гбайт (83%)
Заголовок                                : Release for HDCLUB
Библиотека кодирования                   : x264 core 120 r2146 bcd41db
Настройки программы                      : cabac=1 / ref=11 / deblock=1:-3:-3 / analyse=0x3:0x113 / me=umh / subme=9 / psy=1 / psy_rd=1.10:0.00 / mixed_ref=1 / me_range=16 / chroma_me=1 / trellis=2 / 8x8dct=1 / cqm=0 / deadzone=21,11 / fast_pskip=0 / chroma_qp_offset=-2 / threads=6 / sliced_threads=0 / nr=0 / decimate=0 / interlaced=0 / bluray_compat=0 / constrained_intra=0 / bframes=7 / b_pyramid=2 / b_adapt=2 / b_bias=0 / direct=3 / weightb=1 / open_gop=0 / weightp=2 / keyint=250 / keyint_min=23 / scenecut=40 / intra_refresh=0 / rc=crf / mbtree=0 / crf=16.6 / qcomp=0.60 / qpmin=0 / qpmax=69 / qpstep=4 / ip_ratio=1.40 / pb_ratio=1.30 / aq=1:0.70
Язык                                     : English
Default                                  : Нет
Forced                                   : Нет

Аудио #1
Идентификатор                            : 2
Формат                                   : AC-3
Формат/Информация                        : Audio Coding 3
Расширение режима                        : CM (complete main)
Идентификатор кодека                     : A_AC3
Продолжительность                        : 2 ч. 0 м.
Вид битрейта                             : Постоянный
Битрейт                                  : 448 Кбит/сек
Каналы                                   : 2 канала
Расположение каналов                     : Front: L R
Частота                                  : 48,0 КГц
Битовая глубина                          : 16 бит
Метод сжатия                             : С потерями
Размер потока                            : 387 Мбайт (6%)
Заголовок                                : AC3 2.0ch 448 kbps - Многоголосый
Язык                                     : Russian
Default                                  : Да
Forced                                   : Нет

Аудио #2
Идентификатор                            : 3
Формат                                   : AC-3
Формат/Информация                        : Audio Coding 3
Расширение режима                        : CM (complete main)
Идентификатор кодека                     : A_AC3
Продолжительность                        : 2 ч. 0 м.
Вид битрейта                             : Постоянный
Битрейт                                  : 640 Кбит/сек
Каналы                                   : 6 каналов
Расположение каналов                     : Front: L C R, Side: L R, LFE
Частота                                  : 48,0 КГц
Битовая глубина                          : 16 бит
Метод сжатия                             : С потерями
Размер потока                            : 553 Мбайт (9%)
Заголовок                                : AC3 5.1ch 640 kbps
Язык                                     : French
Default                                  : Нет
Forced                                   : Нет

Текст #1
Идентификатор                            : 4
Формат                                   : UTF-8
Идентификатор кодека                     : S_TEXT/UTF8
Идентификатор кодека/Информация          : UTF-8 Plain Text
Заголовок                                : Russian
Язык                                     : Russian
Default                                  : Нет
Forced                                   : Нет

Текст #2
Идентификатор                            : 5
Формат                                   : UTF-8
Идентификатор кодека                     : S_TEXT/UTF8
Идентификатор кодека/Информация          : UTF-8 Plain Text
Заголовок                                : English
Язык                                     : English
Default                                  : Нет
Forced                                   : Нет

Меню
00:00:00.000                             : en:00:00:00.000
00:06:46.156                             : en:00:06:46.156
00:13:07.537                             : en:00:13:07.537
00:22:08.077                             : en:00:22:08.077
00:32:40.959                             : en:00:32:40.959
00:37:23.408                             : en:00:37:23.408
00:51:06.730                             : en:00:51:06.730
00:56:46.153                             : en:00:56:46.153
01:02:01.468                             : en:01:02:01.468
01:07:20.370                             : en:01:07:20.370
01:16:16.322                             : en:01:16:16.322
01:24:29.815                             : en:01:24:29.815
01:36:59.689                             : en:01:36:59.689
01:42:25.306                             : en:01:42:25.306
01:49:10.419                             : en:01:49:10.419
01:53:41.690                             : en:01:53:41.690
Свернуть
Скриншоты

Изображение
Изображение
Изображение
Изображение
Изображение
Свернуть

http://nnportal.org/
Не в сети
Профиль  
Начать новую темуОтветить на тему  [ 1 сообщение ] 
Вы не можете начинать темы
Вы не можете отвечать на сообщения
Вы не можете редактировать свои сообщения
Вы не можете удалять свои сообщения