Правила форума

  • В этом разделе создание новых тем Запрещено.
  • Для создания новых тем пользуйтесь Корневым разделом DVD и HD фильмы.
Начать новую темуОтветить на тему  [ 1 сообщение ] 
Торрент файл
Размер: 4.37 GB • Зарегистрирован: 3 года 11 месяцев • Статус: # Сомнительно
Скачан: 64 раза • Желающих скачать: 0 • Поблагодарили: 25 раз
 Раздают: 0  |  0 KB/s  ]   Качают: 0  |  0 KB/s  ] 
 Полного источника не было 3 года 
Сообщения
 Добавлено: 2012-12-24 18:23
Модератор релиз-группы
Аватара пользователя
Стаж: 7 лет 8 месяцев
Возраст: 29
Сообщений: 9789
Спасибок: 23731
Лайков: 103
Изображение

Как по маслу
Butter


Год выпуска: 2011
Страна: США
Слоган: «Комедия о сексе, власти и богатстве.»
Жанр: комедия
Продолжительность: 01:30:32
Перевод: Профессиональный (многоголосый, закадровый)
Режиссер: Джим Филд Смит
Сценарий: Джейсон А. Микаллеф
Продюсер: Майкл Де Лука, Дженнифер Гарнер, Джулиана Джейнс, Алисса Филлипс, Келли Кармайкл
Оператор: Джим Дено
Композитор: Мэтт Мессина
В ролях: Дженнифер Гарнер, Тай Бурелл, Оливия Уайлд, Роб Кордри, Эшли Грин, Алисия Сильверстоун, Хью Джекман, Кристен Шааль, Прюитт Тэйлор Винс, Филлис Смит, Яра Шахиди, Доди Браун
Сборы в США: $105 018
Сборы в мире: $175 706
Мировая премьера: 4 сентября 2011
Релиз на DVD: 13 декабря 2012, «New Dream media», «Новый Диск»
Описание: В фильме переплетено несколько сюжетных линий, отчаянный юмор о сексе и политике, и много скульптур из сливочного масла.

Изображение User Rating: 6.096 (587)
Изображение User Rating: 6.00 (3 412)
MPAA: R - Лицам до 17 лет обязательно присутствие взрослого
Раздача группы: Изображение
Качество: BDRip, 1080p
Формат: Matroska
Видео: AVC; 1920x816 (2.35:1); 6321 Kbps; 23,976 fps; 0,168 bit/pixel
Аудио: Russian; AC3; 448 Kbps; CBR; 6 ch
mediainfo
Общее
Уникальный идентификатор : 205983308286405660351517386822719835708 (0x9AF6F13090502CEA8A074C0D4F4B0E3C)
Полное имя : A:РаздачиButter.2011.x264.BDRip.1080p.MVO.mkv
Формат : Matroska
Версия формата : Version 4 / Version 2
Размер файла : 4,37 Гбайт
Продолжительность : 1 ч. 30 м.
Общий поток : 6906 Кбит/сек
Дата кодирования : UTC 2010-02-22 21:41:31
Программа кодирования : mkvmerge v5.9.0 ('On The Loose') built on Dec 9 2012 15:37:01
Библиотека кодирования : libebml v1.3.0 + libmatroska v1.4.0

Видео
Идентификатор : 1
Формат : AVC
Формат/Информация : Advanced Video Codec
Профиль формата : High@L4.0
Параметр CABAC формата : Да
Параметр ReFrames формата : 4 кадра
Идентификатор кодека : V_MPEG4/ISO/AVC
Продолжительность : 1 ч. 30 м.
Битрейт : 6458 Кбит/сек
Ширина : 1920 пикселей
Высота : 816 пикселей
Соотношение сторон : 2,35:1
Соотношение сторон в оригинале : 2,35:1
Частота кадров : 23,976 кадра/сек
Цветовое пространство : YUV
Субдискретизация насыщенности : 4:2:0
Битовая глубина : 8 бит
Тип развёртки : Прогрессивная
Бит/(Пиксели*Кадры) : 0.172
Размер потока : 4,00 Гбайт (92%)
Заголовок : Как по маслу
Библиотека кодирования : x264 core 129 r2230 1cffe9f
Настройки программы : cabac=1 / ref=3 / deblock=1:0:0 / analyse=0x3:0x113 / me=hex / subme=7 / psy=1 / psy_rd=1.00:0.00 / mixed_ref=1 / me_range=16 / chroma_me=1 / trellis=1 / 8x8dct=1 / cqm=0 / deadzone=21,11 / fast_pskip=1 / chroma_qp_offset=-2 / threads=12 / lookahead_threads=2 / sliced_threads=0 / nr=0 / decimate=1 / interlaced=0 / bluray_compat=0 / constrained_intra=0 / bframes=3 / b_pyramid=2 / b_adapt=1 / b_bias=0 / direct=1 / weightb=1 / open_gop=0 / weightp=2 / keyint=240 / keyint_min=23 / scenecut=40 / intra_refresh=0 / rc_lookahead=40 / rc=2pass / mbtree=1 / bitrate=6458 / ratetol=1.0 / qcomp=0.60 / qpmin=10 / qpmax=51 / qpstep=4 / cplxblur=20.0 / qblur=0.5 / ip_ratio=1.40 / aq=1:1.00
Язык : English
Default : Да
Forced : Нет

Аудио
Идентификатор : 2
Формат : AC-3
Формат/Информация : Audio Coding 3
Расширение режима : CM (complete main)
Идентификатор кодека : A_AC3
Продолжительность : 1 ч. 30 м.
Вид битрейта : Постоянный
Битрейт : 448 Кбит/сек
Каналы : 6 каналов
Расположение каналов : Front: L C R, Side: L R, LFE
Частота : 48,0 КГц
Битовая глубина : 16 бит
Метод сжатия : С потерями
Размер потока : 290 Мбайт (6%)
Заголовок : Закадровый многоголосый
Язык : Russian
Default : Да
Forced : Нет
Свернуть
Скриншоты

Изображение
Изображение
Изображение
Изображение
Изображение
Изображение
Изображение
Свернуть


Тема поднималась пользователем volkov2009 2012-12-24 18:23.
Не в сети
Профиль  
Начать новую темуОтветить на тему  [ 1 сообщение ] 
Вы не можете начинать темы
Вы не можете отвечать на сообщения
Вы не можете редактировать свои сообщения
Вы не можете удалять свои сообщения