Правила форума

  • В этом разделе создание новых тем Запрещено.
  • Для создания новых тем пользуйтесь Корневым разделом DVD и HD фильмы.
Начать новую темуОтветить на тему  [ 1 сообщение ] 
Торрент файл
Размер: 12.18 GB • Зарегистрирован: 4 года 7 месяцев • Статус: T Временный релиз
Скачан: 10 раз • Желающих скачать: 0 • Поблагодарили: 6 раз
 Раздают: 0  |  0 KB/s  ]   Качают: 0  |  0 KB/s  ] 
 Полного источника не было 2 года 10 месяцев 
Сообщения
 Добавлено: 2012-04-12 17:42
Книголюб
Аватара пользователя
Стаж: 7 лет 2 месяца
Сообщений: 2823
Спасибок: 48828
Лайков: 73
Как сумасшедший
Like Crazy

Изображение


Год выпуска: 2011
Страна: США (Andrea Sperling Productions, Indian Paintbrush, Paramount Vantage, Super Crispy Entertainment)
Слоган: «I want you - I need you - I love you - I miss you»
Жанр: драма, мелодрама
Продолжительность: 01:30:02
Перевод: Любительский (одноголосый закадровый)

Режиссёр: Дрэйк Доремус
В ролях: Антон Ельчин, Фелисити Джонс, Дженнифер Лоуренс, Чарли Бьюли, Алекс Кингстон, Оливер Мюрхэд, Финола Хьюз, Крис Мессина, Бен Йорк Джонс, Джэми Кинг
Описание: Рассказ пойдет о студентах, которые влюбились друг в друга. Но судьба их разводит на многие годы, пока драматические события вновь не воссоединяют их сердца.
Рейтинг MPAA: Рейтинг PG-13 (Дети до 13 лет допускаются на фильм только с родителями)
Изображение 7.524 899

Качество: BDRip 1080p
Формат: mkv
Видео кодек: H264
Аудио кодек: AC3 (Dolby Digital)
Видео: 17.4 Mбит/с, 1920x1072, 23.976 кадр/c 0.353Bits/Pixel
Аудио #1: Русский (АС3, 6 ch, 448 Кбит/с)
Аудио #2: английский (DTS, 6 ch, 1510 Кбит/с)
MediaInfo
General
Unique ID : 193244463120527367969729472729321422989 (0x916187A1B306CB4B880F3D40C86DC08D)
Complete name : D:\Kak.sumasshedshij..mkv
Format : Matroska
Format version : Version 2
File size : 12.2 GiB
Duration : 1h 30mn
Overall bit rate : 19.4 Mbps
Movie name : -::: ed_rez :::-
Encoded date : UTC 2012-04-08 19:35:57
Writing application : mkvmerge v5.5.0 ('Healer') built on Apr 6 2012 21:43:24
Writing library : libebml v1.2.3 + libmatroska v1.3.0

Video
ID : 1
Format : AVC
Format/Info : Advanced Video Codec
Format profile : High@L4.1
Format settings, CABAC : Yes
Format settings, ReFrames : 4 frames
Codec ID : V_MPEG4/ISO/AVC
Duration : 1h 30mn
Bit rate : 17.4 Mbps
Width : 1 920 pixels
Height : 1 072 pixels
Display aspect ratio : 16:9
Frame rate : 23.976 fps
Color space : YUV
Chroma subsampling : 4:2:0
Bit depth : 8 bits
Scan type : Progressive
Bits/(Pixel*Frame) : 0.353
Stream size : 10.7 GiB (88%)
Title : Like Crazy / 2011
Writing library : x264 core 120 r2164 da19765
Encoding settings : cabac=1 / ref=4 / deblock=1:-3:-3 / analyse=0x3:0x113 / me=umh / subme=11 / psy=1 / psy_rd=1.00:0.10 / mixed_ref=1 / me_range=48 / chroma_me=1 / trellis=2 / 8x8dct=1 / cqm=0 / deadzone=21,11 / fast_pskip=0 / chroma_qp_offset=-3 / threads=36 / sliced_threads=0 / slices=4 / nr=0 / decimate=1 / interlaced=0 / bluray_compat=0 / constrained_intra=0 / bframes=7 / b_pyramid=2 / b_adapt=2 / b_bias=0 / direct=3 / weightb=1 / open_gop=0 / weightp=2 / keyint=240 / keyint_min=23 / scenecut=40 / intra_refresh=0 / rc_lookahead=120 / rc=2pass / mbtree=1 / bitrate=17408 / ratetol=1.0 / qcomp=0.60 / qpmin=0 / qpmax=69 / qpstep=4 / cplxblur=20.0 / qblur=0.5 / vbv_maxrate=50000 / vbv_bufsize=40000 / nal_hrd=none / ip_ratio=1.40 / aq=1:1.00
Language : English
Default : Yes
Forced : No
Color primaries : BT.709-5, BT.1361, IEC 61966-2-4, SMPTE RP177
Transfer characteristics : BT.709-5, BT.1361
Matrix coefficients : BT.709-5, BT.1361, IEC 61966-2-4 709, SMPTE RP177

Audio #1
ID : 2
Format : AC-3
Format/Info : Audio Coding 3
Mode extension : CM (complete main)
Codec ID : A_AC3
Duration : 1h 30mn
Bit rate mode : Constant
Bit rate : 448 Kbps
Channel(s) : 6 channels
Channel positions : Front: L C R, Side: L R, LFE
Sampling rate : 48.0 KHz
Bit depth : 16 bits
Compression mode : Lossy
Stream size : 289 MiB (2%)
Title : [VO - viare] AC3, 6 ch, 448 kbps
Language : Russian
Default : Yes
Forced : No

Audio #2
ID : 3
Format : DTS
Format/Info : Digital Theater Systems
Codec ID : A_DTS
Duration : 1h 30mn
Bit rate mode : Constant
Bit rate : 1 510 Kbps
Channel(s) : 6 channels
Channel positions : Front: L C R, Side: L R, LFE
Sampling rate : 48.0 KHz
Bit depth : 24 bits
Compression mode : Lossy
Stream size : 972 MiB (8%)
Title : [Original] DTS, 6 ch, 1510 kbps
Language : English
Default : No
Forced : No

Text #1
ID : 4
Format : UTF-8
Codec ID : S_TEXT/UTF8
Codec ID/Info : UTF-8 Plain Text
Language : Russian
Default : No
Forced : No

Text #2
ID : 5
Format : UTF-8
Codec ID : S_TEXT/UTF8
Codec ID/Info : UTF-8 Plain Text
Language : English
Default : No
Forced : No

Menu
00:00:00.000 : en:CHAPTER01
00:11:02.161 : en:CHAPTER02
00:22:23.342 : en:CHAPTER03
00:28:14.735 : en:CHAPTER04
00:37:06.224 : en:CHAPTER05
00:44:06.477 : en:CHAPTER06
00:46:43.801 : en:CHAPTER07
00:53:58.444 : en:CHAPTER08
00:58:50.235 : en:CHAPTER09
01:06:42.874 : en:CHAPTER10
01:19:47.116 : en:CHAPTER11
01:26:32.354 : en:CHAPTER12


Свернуть

Скриншоты
Изображение
Изображение
Изображение
Изображение
Свернуть
Не в сети
Профиль  
Начать новую темуОтветить на тему  [ 1 сообщение ] 
Вы не можете начинать темы
Вы не можете отвечать на сообщения
Вы не можете редактировать свои сообщения
Вы не можете удалять свои сообщения