Правила форума

  • В этом разделе создание новых тем Запрещено.
  • Для создания новых тем пользуйтесь Корневым разделом DVD и HD фильмы.
Начать новую темуОтветить на тему  [ 1 сообщение ] 
Торрент файл
Размер: 20.21 GB • Зарегистрирован: 3 года 9 месяцев • Статус: Проверено
Скачан: 31 раз • Желающих скачать: 0 • Поблагодарили: 12 раз
 Раздают: 0  |  0 KB/s  ]   Качают: 0  |  0 KB/s  ] 
 Полного источника не было 3 года 1 месяц 
Сообщения
 Добавлено: 2013-02-24 20:47
Модератор релиз-группы
Аватара пользователя
Стаж: 7 лет 8 месяцев
Возраст: 29
Сообщений: 9789
Спасибок: 23733
Лайков: 103
Изображение

Как трусливый Роберт Форд убил Джесси Джеймса
The Assassination of Jesse James by the Coward Robert Ford


Год выпуска: 2007
Страна: США, Канада, Великобритания
Слоган: «Beyond the myth lies America's greatest betrayal.»
Жанр: драма, криминал, вестерн, биография, история
Продолжительность: 02:39:40
Перевод: Профессиональный (двухголосый, закадровый) Гланц и Королёва
Профессиональный (многоголосый, закадровый)
Авторский (Сербин Юрий)

Режиссер: Эндрю Доминик
Сценарий: Эндрю Доминик, Рон Хансен
Продюсер: Джулс Дэйли, Бен Уайсбрен, Том Кокс, Мюррэй Орд, Джорди Рэндолл
Оператор: Роджер Дикинс
Композитор: Ник Кейв, Уоррен Эллис
В ролях: Брэд Питт, Кейси Аффлек, Сэм Рокуэлл, Пол Шнайдер, Джереми Реннер, Мэри-Луиз Паркер, Бруклин Пру, Дастин Боллинджер, Сэм Шепард, Гаррет Диллахант, Джоэль МакНикол, Джеймс Дефеличе
Бюджет: $30 000 000
Сборы в США: $3 909 149
Сборы в мире: $15 001 776
Мировая премьера: 2 сентября 2007
Релиз на DVD: 30 июня 2011, «CP-Digital»
Описание: История самого печально известного преступника Америки времен Дикого Запада. Дерзкий и непредсказуемый Джесси Джеймс - легендарный вор. Он всегда тщательно планирует свои нападения, и ведет войну с теми, кто наживает деньги и славу, прикрываясь его именем.
В 1881 году в ряды банды Джеймса вступает Роберт Форд. Со временем Джесси падает в глазах Форда, который никогда не отличался смелостью. Никто и не мог предположить, что именно этот трусливый юнец, возмущенный поведением главаря, отважится на убийство Джесси.


Изображение User Rating: 7.340 (9827)
Изображение User Rating: 7.60 (93 995)
MPAA: R - Лицам до 17 лет обязательно присутствие взрослого
Раздача группы: Изображение
Изображение
Качество: BD-Remux, 1080p
Формат: MKV
Видео: VC-1; 1920x1080 (16:9); 15331 Kbps; 23,976 fps; 0,308 bit/pixel
Аудио №1: русский; AC3; 384 Kbps; CBR; 6 ch Профессиональный многоголосый (R5)
Аудио №2: русский; AC3; 384 Kbps; CBR; 6 ch Профессиональный многоголосый (Киномания)
Аудио №3: русский; AC3; 640 Kbps; CBR; 6 ch Профессиональный двухголосый (П. Гланц и И. Королева)
Аудио №4: русский; AC3; 384 Kbps; CBR; 6 ch Авторский одноголосый (Ю. Сербин)
Аудио №5: AC3; 640 Kbps; CBR; 6 ch

Субтитры №1: русские
Субтитры №2: английские

mediainfo
Общее
Уникальный идентификатор : 253150677326020838962653469205452413193 (0xBE730C07903FC585B79B02E0C02DD909)
Полное имя : D:\TORRENT\Kak.truslivui.Robert.Ford.ubil.Jessi.Jeimsa.2007.VC-1.Blu-ray.Remux.1080p.mkv
Формат : Matroska
Размер файла : 20,2 Гбайт
Продолжительность : 2 ч. 39 м.
Общий поток : 18,1 Мбит/сек
Дата кодирования : UTC 2012-02-04 18:53:49
Программа кодирования : mkvmerge v5.0.1 ('Es ist Sommer') built on Oct 9 2011 11:55:43
Библиотека кодирования : libebml v1.2.2 + libmatroska v1.3.0

Видео
Идентификатор : 1
Формат : VC-1
Профиль формата : AP@L3
Идентификатор кодека : WVC1
Идентификатор кодека/Подсказка : Microsoft
Продолжительность : 2 ч. 39 м.
Битрейт : 15,3 Мбит/сек
Ширина : 1920 пикс.
Высота : 1080 пикс.
Соотношение сторон : 16:9
Частота кадров : 23,976 кадр/сек
Подвыборка цветности : 4:2:0
Битовая глубина : 8 бит
Тип развёртки : Прогрессивная
Метод сжатия : С потерями
Бит/(Пиксели*Кадры) : 0.308
Размер потока : 17,1 Гбайт (85%)
Язык : English

Аудио #1
Идентификатор : 2
Формат : AC-3
Формат/Информация : Audio Coding 3
Расширение режима : CM (complete main)
Идентификатор кодека : A_AC3
Продолжительность : 2 ч. 39 м.
Вид битрейта : Постоянный
Битрейт : 384 Кбит/сек
Каналы : 6 каналов
Расположение каналов : Front: L C R, Side: L R, LFE
Частота : 48,0 КГц
Битовая глубина : 16 бит
Метод сжатия : С потерями
Размер потока : 439 Мбайт (2%)
Заголовок : Licence
Язык : Russian

Аудио #2
Идентификатор : 3
Формат : AC-3
Формат/Информация : Audio Coding 3
Расширение режима : CM (complete main)
Идентификатор кодека : A_AC3
Продолжительность : 2 ч. 39 м.
Вид битрейта : Постоянный
Битрейт : 384 Кбит/сек
Каналы : 6 каналов
Расположение каналов : Front: L C R, Side: L R, LFE
Частота : 48,0 КГц
Битовая глубина : 16 бит
Метод сжатия : С потерями
Размер потока : 439 Мбайт (2%)
Заголовок : Kinomania
Язык : Russian

Аудио #3
Идентификатор : 4
Формат : AC-3
Формат/Информация : Audio Coding 3
Расширение режима : CM (complete main)
Идентификатор кодека : A_AC3
Продолжительность : 2 ч. 39 м.
Вид битрейта : Постоянный
Битрейт : 640 Кбит/сек
Каналы : 6 каналов
Расположение каналов : Front: L C R, Side: L R, LFE
Частота : 48,0 КГц
Битовая глубина : 16 бит
Метод сжатия : С потерями
Размер потока : 731 Мбайт (4%)
Заголовок : Glanz
Язык : Russian

Аудио #4
Идентификатор : 5
Формат : AC-3
Формат/Информация : Audio Coding 3
Расширение режима : CM (complete main)
Идентификатор кодека : A_AC3
Продолжительность : 2 ч. 39 м.
Вид битрейта : Постоянный
Битрейт : 384 Кбит/сек
Каналы : 6 каналов
Расположение каналов : Front: L C R, Side: L R, LFE
Частота : 48,0 КГц
Битовая глубина : 16 бит
Метод сжатия : С потерями
Размер потока : 439 Мбайт (2%)
Заголовок : Serbin
Язык : Russian

Аудио #5
Идентификатор : 6
Формат : AC-3
Формат/Информация : Audio Coding 3
Расширение режима : CM (complete main)
Идентификатор кодека : A_AC3
Продолжительность : 2 ч. 39 м.
Вид битрейта : Постоянный
Битрейт : 640 Кбит/сек
Каналы : 6 каналов
Расположение каналов : Front: L C R, Side: L R, LFE
Частота : 48,0 КГц
Битовая глубина : 16 бит
Метод сжатия : С потерями
Размер потока : 731 Мбайт (4%)
Язык : English

Текст #1
Идентификатор : 7
Формат : UTF-8
Идентификатор кодека : S_TEXT/UTF8
Идентификатор кодека/Информация : UTF-8 Plain Text
Язык : Russian

Текст #2
Идентификатор : 8
Формат : UTF-8
Идентификатор кодека : S_TEXT/UTF8
Идентификатор кодека/Информация : UTF-8 Plain Text
Язык : English

Меню
00:00:00.000 : en:Prologue Portrait
00:03:26.372 : en:Appetite for Greater Things
00:09:39.412 : en:Call Me Gregarious
00:12:54.273 : en:Petty Thieves and Rubes
00:16:50.676 : en:Blue Cut Robbery
00:21:56.481 : en:No More Shenanigans
00:25:57.222 : en:Cigars and Lies
00:28:26.705 : en:Names of Enemies
00:33:44.355 : en:Sent Home
00:36:59.050 : en:Threats and Mysteries
00:42:57.575 : en:My Daddy's Wife
00:48:59.937 : en:Jesse Stops By
00:55:33.330 : en:Where's Jim?
01:02:55.772 : en:Shootin' Scrape
01:08:46.956 : en:Snow Grave
01:11:10.266 : en:Overlapping Stories
01:17:33.315 : en:Acting Testy
01:21:29.885 : en:Catch-Up with Miller
01:27:07.555 : en:No Peace When He's Around
01:30:03.398 : en:Craig Rifles Ball
01:34:19.153 : en:Cup of Iniquity
01:36:41.462 : en:Other Side of the Ice
01:40:16.176 : en:You've Been Chosen
01:44:59.459 : en:Just a Human Being
01:48:29.336 : en:Creep Up From Behind
01:53:25.632 : en:By Way of Apology
01:59:24.490 : en:Imagining Himself
02:02:53.366 : en:April 3Rd, 1882
02:06:29.915 : en:News Report
02:09:18.250 : en:Assassination
02:15:01.760 : en:Final Shots
02:17:02.214 : en:Stage Portrayal
02:21:05.957 : en:Charlie's Final Curtain
02:22:30.041 : en:I'm Robert Ford
02:26:15.433 : en:No Applause
02:30:05.663 : en:No Eulogies
02:32:21.132 : en:End Credits


Свернуть
"Знаете ли Вы, что..."
  • Главными претендентами на роль Роберта Форда были Кэйси Аффлек и Шайа ЛаБаф. В конечном счёте роль досталась первому из них, поскольку ЛаБафа посчитали слишком молодым для неё.
  • Первоначально выход фильма в прокат был запланирован на сентябрь 2006 года, но из-за творческих разногласий между режиссёром Эндрю Домиником и киностудией, а также неудачных тестовых просмотров, премьера дважды откладывалась, сначала на февраль 2007 года и затем на сентябрь 2007 года.
  • В контракт Брэда Питта по настоянию актёра был включен специальный пункт, по которому изменение названия фильма не допускалось ни при каких условиях.
  • Съёмки картины проходили с 9 августа по 10 декабря 2005 года главным образом в канадской провинции Альберта. Ряд сцен были также отсняты в историческом районе Exchange District канадского города Виннипег.
  • Городок Крид в штате Колорадо, где происходит значительная часть событий в фильме, был воссоздан на съёмочной площадке стоимостью в 1 млн. долларов неподалёку от местечка Гоут-Крик в канадской провинции Альберта.
  • Роль брата Роберта Форда, Чарли, должна была достаться Гаррету Дилаханту, который получил её из-за большого внешнего сходства с Кэйси Аффлеком. Из-за занятости актера в телевизионных проектах решение пришлось пересмотреть, и в результате эта роль отошла Сэму Роквэллу, а Дилахант довольствовался значительно меньшей ролью одного из членов банды Эдварда Миллера.
  • Живущие в настоящее время потомки легендарного Джесси Джеймса очень тепло отзывались о фильме, особенно высоко отмечая актерские работы двух исполнителей главных ролей Брэда Питта и Кэйси Аффлека.
  • В 1863 году ещё в подростковом возрасте Джесси Джеймс потерял часть среднего пальца на левой руке и в одной из начальных сцен фильма это его увечье открывается зрителям. В этой и во всех последующих сценах верхняя часть соответствующего пальца игравшего его Брэда Питта была аккуратно затёрта с помощью компьютерной графики.
  • Первоначальный вариант картины длился четыре часа. Но в дело вступила студия Warner Bros. и урезала фильм почти на полтора часа.
  • Брэд Питт во время съемок был на девять лет старше Джесси Джеймса на момент его смерти.
  • Кейси Аффлек во время съемок был на десять лет старше Роберта Форда на момент его смерти.
Свернуть
Скриншоты

Изображение
Изображение
Изображение
Изображение
Изображение
Свернуть


Тема поднималась пользователем volkov2009 2013-02-24 20:47.
Не в сети
Профиль  
Начать новую темуОтветить на тему  [ 1 сообщение ] 
Вы не можете начинать темы
Вы не можете отвечать на сообщения
Вы не можете редактировать свои сообщения
Вы не можете удалять свои сообщения