Правила форума

  • В этом разделе создание новых тем Запрещено.
  • Для создания новых тем пользуйтесь Корневым разделом DVD и HD фильмы.
Начать новую темуОтветить на тему  [ Сообщений: 4 ] 
Торрент файл
Размер: 4.64 GB • Зарегистрирован: 4 года 9 месяцев • Статус: Проверено
Скачан: 143 раза • Желающих скачать: 0 • Поблагодарили: 21 раз
 Раздают: 0  |  0 KB/s  ]   Качают: 0  |  0 KB/s  ] 
 Полного источника не было 8 месяцев 
Сообщения
 Добавлено: 2012-03-03 08:26
Руководитель релиз-группы
Аватара пользователя
Стаж: 7 лет 4 месяца
Возраст: 31
Сообщений: 3407
Спасибок: 46729
Лайков: 5
Изображение

Как украсть небоскреб
Tower Heist


Год выпуска: 2011
Страна: США
Слоган: «Вся власть народу. И деньги тоже.»
Жанр: комедия, криминал
Продолжительность: 01:44:33
Перевод: Профессиональный (полное дублирование) [лицензия]
Режиссер: Бретт Рэтнер
Сценарий: Тед Гриффин, Джефф Натансон, Адам Купер
Продюсер: Брайан Грейзер, Эдди Мёрфи, Билл Карраро
Оператор: Данте Спинотти
Композитор: Кристоф Бек
В ролях: Бен Стиллер, Эдди Мёрфи, Кейси Аффлек, Алан Алда, Мэттью Бродерик, Теа Леони, Майкл Пенья, Габури «Гэбби» Сидибе, Стефен Хендерсон, Джадд Хёрш
Бюджет: $75 000 000
Сборы в мире: $150 479 253
Описание: Джошу Ковачу не повезло - его поимел злобный финансист, живущий в роскошных апартаментах на верхнем этаже небоскреба. Чтобы вернуть деньги, Джош с друзьями решается на грандиозную кражу со взломом.
Но одним им это не под силу, и они обращаются к матерому преступнику. Дело за малым - шесть новоявленных друзей Джоушена должны пробраться в пентхаус и отыскать 20 миллионов долларов.
Изображение
MPAA: Изображение
Раздача группы: Изображение
Качество: BDRip, 720p
Формат: MKV
Видео: AVC; 1280x536 (2.35:1); 4336 Kbps; 23,976 fps; 0,264 bit/pixel
Аудио 1: AC3; 384 Kbps; CBR; 6 ch Russian
Аудио 2: DTS; 1509 Kbps; CBR; 6 ch; 24 bit English
Изображение
mediainfo
Формат : Matroska
Версия формата : Version 2
Размер файла : 4,64 Гбайт
Продолжительность : 1 ч. 44 м.
Общий поток : 6357 Кбит/сек
Дата кодирования : UTC 2012-03-02 20:51:58
Программа кодирования : mkvmerge v4.8.0 ('I Got The...') сборка от May 24 2011 03:12:58
Библиотека кодирования : libebml v1.2.0 + libmatroska v1.1.0

Видео
Идентификатор : 1
Формат : AVC
Формат/Информация : Advanced Video Codec
Профиль формата : High@L4.1
Параметр CABAC формата : Да
Параметр ReFrames формата : 5 кадров
Режим смешивания : Header stripping
Идентификатор кодека : V_MPEG4/ISO/AVC
Продолжительность : 1 ч. 44 м.
Битрейт : 4474 Кбит/сек
Ширина : 1280 пикселей
Высота : 536 пикселей
Соотношение сторон : 2,40:1
Частота кадров : 23,976 кадра/сек
Цветовое пространство : YUV
Субдискретизация насыщенности : 4:2:0
Битовая глубина : 8 бит
Тип развёртки : Прогрессивная
Бит/(Пиксели*Кадры) : 0.272
Размер потока : 3,17 Гбайт (68%)
Библиотека кодирования : x264 core 120 r2146 bcd41db
Настройки программы : cabac=1 / ref=5 / deblock=1:0:0 / analyse=0x3:0x113 / me=umh / subme=8 / psy=1 / psy_rd=1.00:0.00 / mixed_ref=1 / me_range=16 / chroma_me=1 / trellis=1 / 8x8dct=1 / cqm=0 / deadzone=21,11 / fast_pskip=1 / chroma_qp_offset=-2 / threads=12 / sliced_threads=0 / nr=0 / decimate=1 / interlaced=0 / bluray_compat=0 / constrained_intra=0 / bframes=3 / b_pyramid=2 / b_adapt=2 / b_bias=0 / direct=3 / weightb=1 / open_gop=0 / weightp=2 / keyint=240 / keyint_min=24 / scenecut=40 / intra_refresh=0 / rc_lookahead=50 / rc=2pass / mbtree=1 / bitrate=4474 / ratetol=1.0 / qcomp=0.60 / qpmin=0 / qpmax=69 / qpstep=4 / cplxblur=20.0 / qblur=0.5 / ip_ratio=1.40 / aq=1:1.00
Язык : English

Аудио #1
Идентификатор : 2
Формат : AC-3
Формат/Информация : Audio Coding 3
Расширение режима : CM (complete main)
Режим смешивания : Header stripping
Идентификатор кодека : A_AC3
Продолжительность : 1 ч. 44 м.
Вид битрейта : Постоянный
Битрейт : 384 Кбит/сек
Каналы : 6 каналов
Расположение каналов : Front: L C R, Side: L R, LFE
Частота : 48,0 КГц
Битовая глубина : 16 бит
Метод сжатия : С потерями
Размер потока : 287 Мбайт (6%)
Заголовок : DUB
Язык : Russian

Аудио #2
Идентификатор : 3
Формат : DTS
Формат/Информация : Digital Theater Systems
Режим смешивания : Header stripping
Идентификатор кодека : A_DTS
Продолжительность : 1 ч. 44 м.
Вид битрейта : Постоянный
Битрейт : 1510 Кбит/сек
Каналы : 6 каналов
Расположение каналов : Front: L C R, Side: L R, LFE
Частота : 48,0 КГц
Битовая глубина : 24 бит
Метод сжатия : С потерями
Задержка видео : 11 мс.
Размер потока : 1,10 Гбайт (24%)
Язык : English

Меню
00:00:00.000 : en:00:00:00.000
00:03:23.203 : en:00:03:23.203
00:09:20.810 : en:00:09:20.810
00:14:09.599 : en:00:14:09.599
00:19:13.778 : en:00:19:13.778
00:23:41.503 : en:00:23:41.503
00:27:16.468 : en:00:27:16.468
00:32:05.549 : en:00:32:05.549
00:38:16.377 : en:00:38:16.377
00:43:57.260 : en:00:43:57.260
00:49:20.541 : en:00:49:20.541
00:53:42.594 : en:00:53:42.594
00:56:58.582 : en:00:56:58.582
01:01:46.995 : en:01:01:46.995
01:06:22.687 : en:01:06:22.687
01:11:30.161 : en:01:11:30.161
01:17:13.504 : en:01:17:13.504
01:23:09.568 : en:01:23:09.568
01:31:52.257 : en:01:31:52.257
01:38:42.125 : en:01:38:42.125
Свернуть
Скриншоты

Изображение
Изображение
Изображение
Изображение
Изображение
Свернуть
Не в сети
Профиль  
 Добавлено: 2012-03-04 19:42 (спустя 1 день 11 часов)
Стаж: 5 лет 2 месяца
Сообщений: 98
спасибо!
Не в сети
Профиль  
 Добавлено: 2012-03-04 22:52 (спустя 3 часа)
Руководитель релиз-группы
Аватара пользователя
Стаж: 7 лет 4 месяца
Возраст: 31
Сообщений: 3407
Спасибок: 46729
Лайков: 5
Корнелис
всегда пожалуйста! :)
Не в сети
Профиль  
 Добавлено: 2012-03-04 23:31 (спустя 39 минут)
Стаж: 9 лет
Сообщений: 153
Спасибок: 49
давно настолько не получал удовольствия от фильма, всем любителям "11-12-13 друзей Оушена" смотреть не задумываясь)
Не в сети
Профиль  
Начать новую темуОтветить на тему  [ Сообщений: 4 ] 
Вы не можете начинать темы
Вы не можете отвечать на сообщения
Вы не можете редактировать свои сообщения
Вы не можете удалять свои сообщения