Правила форума

  • В этом разделе создание новых тем Запрещено.
  • Для создания новых тем пользуйтесь Корневым разделом DVD и HD фильмы.
Начать новую темуОтветить на тему  [ Сообщений: 2 ] 
Торрент файл
Размер: 8.47 GB • Зарегистрирован: 5 лет 5 месяцев • Статус: Проверено
Скачан: 116 раз • Желающих скачать: 0 • Поблагодарили: 24 раза
 Раздают: 0  |  0 KB/s  ]   Качают: 0  |  0 KB/s  ] 
 Полного источника не было 1 год 6 месяцев 
Сообщения
 Добавлено: 2011-06-07 10:39
Модератор
Аватара пользователя
Стаж: 8 лет 1 месяц
Возраст: 20
Сообщений: 32130
Спасибок: 98565
Лайков: 80
Изображение

Как выйти замуж за миллиардера / Chalet Girl


Год выпуска: 2010
Страна: Германия, Великобритания, Австрия
Слоган: «История золушки в Альпах»

Жанр: мелодрама, комедия
Продолжительность: 01:32:37
Перевод: Оригинальный, Субтитры, Профессиональный (полное дублирование) [лицензия]


Сборы в России: $1 188 418

Мировая премьера: 17 февраля 2011
Релиз на DVD: 12 мая 2011, «CP-Digital»
Релиз на Blu-ray: 19 мая 2011, «CP-Digital»
Описание: Ким, юная скромница английского городка, получает работу на фешенебельном горнолыжном курорте в Альпах. Ей сложно привыкнуть к новому миру роскоши, раскованности и снежных рекордов. Но вскоре Ким обнаруживает в себе талант к спуску на сноуборде и, кажется, влюбляется в симпатичного сына владельца курорта, отдыхающего здесь с подругой... Сможет ли Ким пробиться на Кубок Мира по сноуборду с ценным призом для победительницы? И как ей понять, не морочит ли «золотой мальчик» ей голову?
Изображение
Качество: BDRip 1080p R5
Формат: Matroska

Видеокодек: MPEG-4 AVC/H.264
Битрейт видео: ~10.1 Mbps
Размер кадра: 1920 x 1032 (1.860) at 25.000 fps : 0.205 bit/pixel
Аудиокодек: DTS
Аудио #1: Изображение Russian DTS 1510 kbps, 48 kHz
Аудио #2: Изображение English DTS 1510 kbps, 48 kHz
Изображение
MediaInfo
Complete name                    : Y:\Chalet.Girl.2011.BDRip.1080p.mkv
Format                           : Matroska
File size                        : 8.47 GiB
Duration                         : 1h 32mn
Overall bit rate                 : 13.1 Mbps
Writing application              : AVI-Mux GUI 1.17.6, May 28 2006  15:53:35
Writing library                  : matroska muxer by Alexander Noe, build date May 25 2006

Video
ID                               : 1
Format                           : AVC
Format/Info                      : Advanced Video Codec
Format profile                   : High@L4.1
Format settings, CABAC           : Yes
Format settings, ReFrames        : 3 frames
Codec ID                         : V_MPEG4/ISO/AVC
Duration                         : 1h 32mn
Bit rate                         : 10.1 Mbps
Width                            : 1 920 pixels
Height                           : 1 032 pixels
Display aspect ratio             : 1.860
Frame rate                       : 25.000 fps
Color space                      : YUV
Chroma subsampling               : 4:2:0
Bit depth                        : 8 bits
Scan type                        : Progressive
Bits/(Pixel*Frame)               : 0.205
Stream size                      : 6.35 GiB (75%)
Writing library                  : x264 core 115 r1937 aa21558
Encoding settings                : cabac=1 / ref=4 / deblock=1:-1:-1 / analyse=0x3:0x133 / me=umh / subme=9 / psy=1 / psy_rd=1.00:0.10 / mixed_ref=1 / me_range=48 / chroma_me=1 / trellis=2 / 8x8dct=1 / cqm=0 / deadzone=21,11 / fast_pskip=0 / chroma_qp_offset=-3 / threads=6 / sliced_threads=0 / nr=0 / decimate=1 / interlaced=0 / bluray_compat=1 / constrained_intra=0 / bframes=3 / b_pyramid=1 / b_adapt=2 / b_bias=0 / direct=3 / weightb=1 / open_gop=0 / weightp=1 / keyint=250 / keyint_min=25 / scenecut=40 / intra_refresh=0 / rc_lookahead=50 / rc=abr / mbtree=1 / bitrate=10136 / ratetol=1.0 / qcomp=0.70 / qpmin=0 / qpmax=69 / qpstep=4 / ip_ratio=1.40 / aq=1:1.00
Language                         : English / Russian

Audio #1
ID                               : 2
Format                           : DTS
Format/Info                      : Digital Theater Systems
Codec ID                         : A_DTS
Duration                         : 1h 32mn
Bit rate mode                    : Constant
Bit rate                         : 1 510 Kbps
Channel(s)                       : 6 channels
Channel positions                : Front: L C R, Side: L R, LFE
Sampling rate                    : 48.0 KHz
Bit depth                        : 24 bits
Compression mode                 : Lossy
Delay relative to video          : 21ms
Stream size                      : 1 000 MiB (12%)
Title                            : DTS 5.1. 1510 Kbps Russian
Language                         : English / Russian

Audio #2
ID                               : 3
Format                           : DTS
Format/Info                      : Digital Theater Systems
Codec ID                         : A_DTS
Duration                         : 1h 32mn
Bit rate mode                    : Constant
Bit rate                         : 1 510 Kbps
Channel(s)                       : 6 channels
Channel positions                : Front: L C R, Side: L R, LFE
Sampling rate                    : 48.0 KHz
Bit depth                        : 24 bits
Compression mode                 : Lossy
Stream size                      : 1 000 MiB (12%)
Title                            : DTS 5.1. 1510 Kbps English
Language                         : English / English

Text
ID                               : 4
Format                           : UTF-8
Codec ID                         : S_TEXT/UTF8
Codec ID/Info                    : UTF-8 Plain Text
Title                            : Kak. vyjti. zamuzh. za.milliardera.2011.BDRip.rus
Language                         : Russian
Свернуть
Скриншоты
Изображение

Изображение

Изображение

Изображение

Изображение

Изображение
Свернуть
Не в сети
Профиль  
 Добавлено: 2011-06-09 15:00 (спустя 2 дня 4 часа)
Стаж: 8 лет 9 месяцев
Сообщений: 162
Спасибок: 62
Лайков: 1
:co_ol:
Не в сети
Профиль  
Начать новую темуОтветить на тему  [ Сообщений: 2 ] 
Вы не можете начинать темы
Вы не можете отвечать на сообщения
Вы не можете редактировать свои сообщения
Вы не можете удалять свои сообщения