Правила форума

  • В этом разделе создание новых тем Запрещено.
  • Для создания новых тем пользуйтесь Корневым разделом DVD и HD фильмы.
Начать новую темуОтветить на тему  [ Сообщений: 5 ] 
Торрент файл
Размер: 5.26 GB • Зарегистрирован: 3 года 8 месяцев • Статус: T Временный релиз
Скачан: 10 раз • Желающих скачать: 0 • Поблагодарили: 7 раз
 Раздают: 0  |  0 KB/s  ]   Качают: 0  |  0 KB/s  ] 
 Полного источника не было 1 год 9 месяцев 
Сообщения
 Добавлено: 2013-04-01 22:34
Аватара пользователя
Стаж: 7 лет 4 месяца
Возраст: 28
Сообщений: 340
Спасибок: 4350
Лайков: 2


Калейдоскоп любви / 360

«Everything comes full circle.»


Изображение


Год выпуска: 2012
Страна: Франция, Бразилия, Великобритания, Австрия
Жанр: Драма, мелодрама
Продолжительность: 01:50:12
Перевод: Любительский (двухголосый закадровый)
Субтитры: Встроенные (не отключаемые)


Режиссер: Фернанду Мейреллиш / Fernando Meirelles


В ролях: Энтони Хопкинс, Джуд Лоу, Рэйчел Вайз, Владимир Вдовиченков, Бен Фостер, Марк Иванир, Мориц Бляйбтрой, Жамель Деббуз, Питер Морган, Луция Сипосова, Габриэла Марчинкова, Йоханнес Криш, Динара Друкарова, Джулиано Казарре, Мария Флор, Бен Фостер, Марианн Жан-Баптист, Даница Юрчова, Риэнн Стил, Франсуа-Ксавье Демезон, Джамел Барек, Чипо Чанг, Сидни Вэйд, Тереза Србова, Катрина Васильева


Описание:
Они — из разных социальных слоев. Но что-то притягивает их друг к другу. Только секс? Или это все-таки любовь? Ведь человек всегда глубже того, чем он сам думает о себе…
Несколько современных историй о персонажах из разных городов и стран, объединены в яркий, напряженный, пропитанный ожиданием и проникающий в душу рассказ о любви. Начинаясь в Вене, захватывающее повествование переносит зрителя в Париж, Лондон, Братиславу, Рио, Денвер и Финикс.


Изображение

Премьера (мир): 9 сентября 2011
Премьера (РФ): 14 февраля 2013


Качество: BDRip
Формат: MKV
Видео кодек: AVC/H.264
Аудио кодек: AC3
Видео: 1280x544, 23.979fps, AVC/H.264 6000Kbps
Аудио 1: 48kHz, AC3, 6 ch, 448 Kbps - Русский
Аудио 2: 48kHz, AC3, 6 ch, 384 Kbps - Английский


Media Info:
D:\Фильмы\360.2011.x264.BDRip720p.mkv
General
Unique ID : 238588658442538046250164945032813782061 (0xB37E811130EFB80DBD883A1F0ABCA42D)
Complete name : D:\Фильмы\360.2011.x264.BDRip720p.mkv
Format : Matroska
Format version : Version 2
File size : 5.26 GiB
Duration : 1h 50mn
Overall bit rate : 6 830 Kbps
Movie name : --SCHUMAHER--
Encoded date : UTC 2013-02-20 18:26:20
Writing application : mkvmerge v5.8.0 ('No Sleep / Pillow') built on Sep 2 2012 15:37:04
Writing library : libebml v1.2.3 + libmatroska v1.3.0
Video #1
ID : 1
Format : AVC
Format/Info : Advanced Video Codec
Format profile : High@L4.1
Format settings, CABAC : Yes
Format settings, ReFrames : 11 frames
Codec ID : V_MPEG4/ISO/AVC
Duration : 1h 50mn
Bit rate : 6 000 Kbps
Width : 1 280 pixels
Height : 544 pixels
Display aspect ratio : 2.35:1
Frame rate mode : Constant
Frame rate : 23.976 fps
Color space : YUV
Chroma subsampling : 4:2:0
Bit depth : 8 bits
Scan type : Progressive
Bits/(Pixel*Frame) : 0.359
Stream size : 4.51 GiB (86%)
Writing library : x264 core 125 r2208 d9d2288
Encoding settings : cabac=1 / ref=11 / deblock=1:-1:-1 / analyse=0x3:0x113 / me=umh / subme=10 / psy=1 / psy_rd=1.00:0.00 / mixed_ref=1 / me_range=48 / chroma_me=1 / trellis=2 / 8x8dct=1 / cqm=0 / deadzone=21,11 / fast_pskip=0 / chroma_qp_offset=-4 / threads=9 / lookahead_threads=1 / sliced_threads=0 / nr=0 / decimate=0 / interlaced=0 / bluray_compat=0 / constrained_intra=0 / bframes=6 / b_pyramid=2 / b_adapt=2 / b_bias=0 / direct=3 / weightb=1 / open_gop=0 / weightp=2 / keyint=250 / keyint_min=23 / scenecut=40 / intra_refresh=0 / rc_lookahead=40 / rc=2pass / mbtree=0 / bitrate=6000 / ratetol=1.0 / qcomp=0.60 / qpmin=0 / qpmax=69 / qpstep=4 / cplxblur=20.0 / qblur=0.5 / vbv_maxrate=40000 / vbv_bufsize=40000 / nal_hrd=none / ip_ratio=1.40 / pb_ratio=1.30 / aq=1:0.80
Language : English
Default : Yes
Forced : Yes
Audio #2
ID : 2
Format : AC-3
Format/Info : Audio Coding 3
Mode extension : CM (complete main)
Format settings, Endianness : Big
Codec ID : A_AC3
Duration : 1h 50mn
Bit rate mode : Constant
Bit rate : 448 Kbps
Channel(s) : 6 channels
Channel positions : Front: L C R, Side: L R, LFE
Sampling rate : 48.0 KHz
Bit depth : 16 bits
Compression mode : Lossy
Stream size : 353 MiB (7%)
Title : Chip i Deil
Language : Russian
Default : Yes
Forced : No
Audio #3
ID : 3
Format : AC-3
Format/Info : Audio Coding 3
Mode extension : CM (complete main)
Format settings, Endianness : Big
Codec ID : A_AC3
Duration : 1h 50mn
Bit rate mode : Constant
Bit rate : 384 Kbps
Channel(s) : 6 channels
Channel positions : Front: L C R, Side: L R, LFE
Sampling rate : 48.0 KHz
Bit depth : 16 bits
Compression mode : Lossy
Stream size : 303 MiB (6%)
Language : English
Default : No
Forced : No
Свернуть
Скриншоты
Изображение

Изображение

Изображение

Изображение

Изображение
Свернуть



Приятного просмотра! Не забываем благодарить релизёра! :)


_________________
Вообще стало не совпадать: как хочется поступить и как правильно поступить. А хочется, чтобы было как правильно, но хочется, чтобы было, как хочется… И, что делать?!


Последний раз редактировалось Анатолий15 2013-04-07 15:58, всего редактировалось 2 раз(а).
Не в сети
Профиль  
 Добавлено: 2013-04-02 16:07 (спустя 17 часов)
Руководитель релиз-группы
Аватара пользователя
Стаж: 7 лет 5 месяцев
Возраст: 31
Сообщений: 3406
Спасибок: 46729
Лайков: 5
Анатолий15
Для DVD и HD-разделов необходимы развернутые технические данные:
Для HD: Отчет BDInfo→ (после нажатия кнопки «scan bitrates» и окончания сканирования) или MediaInfo→ ( весь текст из режима view (вид) → text (текст).) (под спойлером)
Не в сети
Профиль  
 Добавлено: 2013-04-02 20:33 (спустя 4 часа)
Аватара пользователя
Стаж: 7 лет 4 месяца
Возраст: 28
Сообщений: 340
Спасибок: 4350
Лайков: 2

askboy:

Анатолий15
Для DVD и HD-разделов необходимы развернутые технические данные:
Для HD: Отчет BDInfo→ (после нажатия кнопки «scan bitrates» и окончания сканирования) или MediaInfo→ ( весь текст из режима view (вид) → text (текст).) (под спойлером)

Поправил :)
_________________
Вообще стало не совпадать: как хочется поступить и как правильно поступить. А хочется, чтобы было как правильно, но хочется, чтобы было, как хочется… И, что делать?!
Не в сети
Профиль  
 Добавлено: 2013-04-03 16:42 (спустя 20 часов)
Руководитель релиз-группы
Аватара пользователя
Стаж: 7 лет 5 месяцев
Возраст: 31
Сообщений: 3406
Спасибок: 46729
Лайков: 5

Анатолий15:

Поправил :)
Что это ? :)
это DVDinfo от какого-то DVD диска на 4.22 Гб..
Не в сети
Профиль  
 Добавлено: 2013-04-07 15:59 (спустя 3 дня)
Аватара пользователя
Стаж: 7 лет 4 месяца
Возраст: 28
Сообщений: 340
Спасибок: 4350
Лайков: 2

askboy:

Анатолий15:

Поправил :)
Что это ? :)
это DVDinfo от какого-то DVD диска на 4.22 Гб..

Ну да...чёт реально тупанул)) :hi_hi_hi:
_________________
Вообще стало не совпадать: как хочется поступить и как правильно поступить. А хочется, чтобы было как правильно, но хочется, чтобы было, как хочется… И, что делать?!
Не в сети
Профиль  
Начать новую темуОтветить на тему  [ Сообщений: 5 ] 
Вы не можете начинать темы
Вы не можете отвечать на сообщения
Вы не можете редактировать свои сообщения
Вы не можете удалять свои сообщения