Правила форума

  • В этом разделе создание новых тем Запрещено.
  • Для создания новых тем пользуйтесь Корневым разделом DVD и HD фильмы.
Начать новую темуОтветить на тему  [ 1 сообщение ] 
Торрент файл
Размер: 5.65 GB • Зарегистрирован: 2 года 7 месяцев • Статус: Проверено
Скачан: 18 раз • Желающих скачать: 0 • Поблагодарили: 8 раз
 Раздают: 0  |  0 KB/s  ]   Качают: 0  |  0 KB/s  ] 
 Полного источника не было 3 дня 
Сообщения
 Добавлено: 2014-04-12 13:13
Книголюб
Аватара пользователя
Стаж: 7 лет 2 месяца
Сообщений: 2823
Спасибок: 48824
Лайков: 73
Каникулы Дюкобю
Les vacances de Ducobu

Изображение


Год выпуска: 2012
Страна: Франция
Жанр: комедия, семейный
Продолжительность: 01:36:57
Перевод: Профессиональный (многоголосый закадровый)

Режиссёр: Филипп де Шоврон
В ролях: Эли Семун, Жозефин де Мо, Элена Ногуэрра, Пьер-Франсуа Мартен-Лаваль, Бруно Саломон, Джульетт Чаппи, Сириль Леконт, Жан-Марк Равера, Андре Пенверн
Описание: Сумасшедшая семейка отправилась отдыхать на юг Франции. Подростку Френку очень стыдно за то, что его семья так нескромно ведет себя на людях, и он пытается как можно больше времени проводить подальше от своей семьи. Тут он знакомится с красивой девушкой, у которой не менее сумасшедшая семейка…
Мировая премьера: 25 апреля 2012
Бюджет: €10 800 000

Качество: BDRip (720p)
Формат: MKV
Видео кодек: H.264
Видео: 1280x720 24fps 6 478 Kbps
Аудио #1: Русский: Dolby AC3 48000Hz stereo 192kbps
Аудио #2: Французский:DTS 48000Hz 6 channels 1 509 Kbps
MediaInfo
General
Unique ID : 198821062392818192073106637309387825468 (0x95938B341967161CA0C810704761613C)
Complete name : K:\Torrent\Les Vacances de Ducobu.mkv
Format : Matroska
Format version : Version 2
File size : 5.65 GiB
Duration : 1h 36mn
Overall bit rate : 8 345 Kbps
Movie name : Les Vacances de Ducobu 2011
Encoded date : UTC 2014-04-11 16:09:58
Writing application : mkvmerge v6.8.0 ('Theme for Great Cities') 32bit built on Mar 2 2014 21:27:07
Writing library : libebml v1.3.0 + libmatroska v1.4.1

Video
ID : 1
Format : AVC
Format/Info : Advanced Video Codec
Format profile : High@L4.1
Format settings, CABAC : Yes
Format settings, ReFrames : 9 frames
Codec ID : V_MPEG4/ISO/AVC
Duration : 1h 36mn
Bit rate : 6 478 Kbps
Width : 1 280 pixels
Height : 720 pixels
Display aspect ratio : 16:9
Frame rate mode : Constant
Frame rate : 24.000 fps
Color space : YUV
Chroma subsampling : 4:2:0
Bit depth : 8 bits
Scan type : Progressive
Bits/(Pixel*Frame) : 0.293
Stream size : 4.39 GiB (78%)
Title : Les Vacances de Ducobu
Writing library : x264 core 128 r2M 198a7ea
Encoding settings : cabac=1 / ref=9 / deblock=1:-3:-3 / analyse=0x3:0x113 / me=umh / subme=11 / psy=1 / psy_rd=0.95:0.13 / mixed_ref=1 / me_range=128 / chroma_me=1 / trellis=2 / 8x8dct=1 / cqm=0 / deadzone=6,6 / fast_pskip=0 / chroma_qp_offset=-3 / threads=6 / lookahead_threads=1 / sliced_threads=0 / nr=0 / decimate=0 / interlaced=0 / bluray_compat=0 / constrained_intra=0 / bframes=8 / b_pyramid=2 / b_adapt=2 / b_bias=0 / direct=3 / weightb=1 / open_gop=1 / weightp=2 / keyint=250 / keyint_min=24 / scenecut=40 / intra_refresh=0 / rc_lookahead=250 / rc=crf / mbtree=1 / crf=18.6 / qcomp=0.75 / qpmin=0 / qpmax=69 / qpstep=4 / vbv_maxrate=50000 / vbv_bufsize=50000 / crf_max=0.0 / nal_hrd=none / ip_ratio=1.40 / aq=3:0.75
Language : French
Default : Yes
Forced : No
Color primaries : BT.709
Transfer characteristics : BT.709
Matrix coefficients : BT.709

Audio #1
ID : 2
Format : AC-3
Format/Info : Audio Coding 3
Mode extension : CM (complete main)
Format settings, Endianness : Big
Codec ID : A_AC3
Duration : 1h 36mn
Bit rate mode : Constant
Bit rate : 192 Kbps
Channel(s) : 2 channels
Channel positions : Front: L R
Sampling rate : 48.0 KHz
Bit depth : 16 bits
Compression mode : Lossy
Stream size : 133 MiB (2%)
Title : MVO [CTC]
Language : Russian
Default : No
Forced : No

Audio #2
ID : 3
Format : DTS
Format/Info : Digital Theater Systems
Mode : 16
Format settings, Endianness : Big
Codec ID : A_DTS
Duration : 1h 36mn
Bit rate mode : Constant
Bit rate : 1 509 Kbps
Channel(s) : 6 channels
Channel positions : Front: L C R, Side: L R, LFE
Sampling rate : 48.0 KHz
Bit depth : 16 bits
Compression mode : Lossy
Stream size : 1.02 GiB (18%)
Title : Original [DTS 5.1 1510 Kbps]
Language : French
Default : No
Forced : No

Menu
00:00:00.000 : en:00:00:00.000
00:10:24.083 : en:00:10:24.083
00:16:45.625 : en:00:16:45.625
00:23:24.500 : en:00:23:24.500
00:31:30.042 : en:00:31:30.042
00:39:42.750 : en:00:39:42.750
00:49:46.958 : en:00:49:46.958
00:58:10.167 : en:00:58:10.167
01:05:22.708 : en:01:05:22.708
01:14:09.083 : en:01:14:09.083
01:21:24.208 : en:01:21:24.208
01:29:53.125 : en:01:29:53.125


Свернуть

Скриншоты
Изображение
Изображение
Изображение
Изображение
Свернуть
Не в сети
Профиль  
Начать новую темуОтветить на тему  [ 1 сообщение ] 
Вы не можете начинать темы
Вы не можете отвечать на сообщения
Вы не можете редактировать свои сообщения
Вы не можете удалять свои сообщения