Правила форума

  • В этом разделе создание новых тем Запрещено.
  • Для создания новых тем пользуйтесь Корневым разделом DVD и HD фильмы.
Начать новую темуОтветить на тему  [ Сообщений: 2 ] 
Торрент файл
Размер: 7.92 GB • Зарегистрирован: 1 год 1 месяц • Статус: Проверено
Скачан: 242 раза • Желающих скачать: 0 • Поблагодарили: 43 раза
 Раздают: 1  |  0 KB/s  ]   Качают: 0  |  0 KB/s  ] 
Сообщения
 Добавлено: 2015-10-24 09:02
RG-ELEKTRO
Аватара пользователя
Стаж: 2 года 3 месяца
Сообщений: 7928
Спасибок: 53761
Лайков: 3304
Каникулы / Vacation


Изображение


Год выпуска: 2015
Страна: США (BenderSpink, David Dobkin Productions, New Line Cinema)
Жанр: комедия, приключения
Продолжительность: 01:39:00
Перевод: Профессиональный (дубляж) [iTunes]

Режиссёр: Джон Фрэнсис Дейли, Джонатан М. Голдштейн
В ролях: Эд Хелмс, Кристина Эпплгейт, Скайлер Джизондо, Стил Стеббинс, Крис Хемсворт, Лесли Манн, Чеви Чейз, Беверли Д’Анджело, Чарли Дэй, Катрин Миссал
Описание: Расти Гризвольд — молодой отец и примерный семьянин, который очень хочет сплотить семью и воссоздать каникулы из своего детства. Вместе с супругой и двумя сыновьями он решает совершить незабываемое путешествие через всю страну, конечной целью которого станет самый лучший тематический парк Америки. Все тщательно спланировав, они отправляются в дорогу, надеясь, что их ждет очень веселое и увлекательное путешествие.

В начале пути все происходит как нельзя лучше, но чем дальше они отдаляются от дома, тем больше проблем их ждет впереди. Все пошло совсем не так, как планировал Расти, но он не собирается останавливаться и готов сделать все возможное для того, чтобы добраться до пункта назначения и подарить своей семье лучшие каникулы…

Изображение Изображение Изображение
Качество: BDRip 1080p
Формат: MKV
Видео кодек: MPEG-4 AVC
Аудио кодек: AC3 / DTS
Видео: MPEG-4 AVC, 9551 Кбит/с, 1920x800
Аудио #1: AC3, 6 ch, 384 Кбит/с [Профессиональный (дубляж)]
Аудио #2: English: DTS, 6 ch, 1509 Кбит/с

"MI"
General
Unique ID : 217442600903695048412127854600710858461 (0xA395EBEFB851FFCBBF1E2A208C3526DD)
Complete name : D:\K4H1KyL1.2015.D.BDRip.1080p.mkv
Format : Matroska
Format version : Version 2
File size : 7.92 GiB
Duration : 1h 39mn
Overall bit rate : 11.4 Mbps
Encoded date : UTC 2015-10-22 22:44:14
Writing application : mkvmerge v8.3.0 ('Over the Horizon') 64bit
Writing library : libebml v1.3.1 + libmatroska v1.4.2
DURATION : 01:39:02.155000000
NUMBER_OF_FRAMES : 557077
NUMBER_OF_BYTES : 1120838924
_STATISTICS_WRITING_APP : mkvmerge v8.3.0 ('Over the Horizon') 64bit
_STATISTICS_WRITING_DATE_UT : 2015-10-22 22:44:14
_STATISTICS_TAGS : BPS DURATION NUMBER_OF_FRAMES NUMBER_OF_BYTES

Video
ID : 2
Format : AVC
Format/Info : Advanced Video Codec
Format profile : High@L4.1
Format settings, CABAC : Yes
Format settings, ReFrames : 5 frames
Codec ID : V_MPEG4/ISO/AVC
Duration : 1h 39mn
Bit rate : 9 551 Kbps
Width : 1 920 pixels
Height : 800 pixels
Display aspect ratio : 2.40:1
Frame rate mode : Constant
Frame rate : 23.976 fps
Color space : YUV
Chroma subsampling : 4:2:0
Bit depth : 8 bits
Scan type : Progressive
Bits/(Pixel*Frame) : 0.259
Stream size : 6.45 GiB (81%)
Writing library : x264 core 148 r2597 e86f3a1
Encoding settings : cabac=1 / ref=5 / deblock=1:0:0 / analyse=0x3:0x133 / me=umh / subme=7 / psy=1 / psy_rd=1.00:0.00 / mixed_ref=1 / me_range=16 / chroma_me=1 / trellis=1 / 8x8dct=1 / cqm=0 / deadzone=21,11 / fast_pskip=0 / chroma_qp_offset=-2 / threads=18 / lookahead_threads=3 / sliced_threads=0 / nr=0 / decimate=1 / interlaced=0 / bluray_compat=0 / constrained_intra=0 / bframes=3 / b_pyramid=2 / b_adapt=1 / b_bias=0 / direct=1 / weightb=1 / open_gop=0 / weightp=2 / keyint=250 / keyint_min=23 / scenecut=40 / intra_refresh=0 / rc_lookahead=40 / rc=2pass / mbtree=1 / bitrate=9551 / ratetol=1.0 / qcomp=0.60 / qpmin=0 / qpmax=69 / qpstep=4 / cplxblur=20.0 / qblur=0.5 / ip_ratio=1.40 / aq=1:1.00
Language : English
Default : Yes
Forced : No

Audio #1
ID : 1
Format : AC-3
Format/Info : Audio Coding 3
Mode extension : CM (complete main)
Format settings, Endianness : Big
Codec ID : A_AC3
Duration : 1h 39mn
Bit rate mode : Constant
Bit rate : 384 Kbps
Channel(s) : 6 channels
Channel positions : Front: L C R, Side: L R, LFE
Sampling rate : 48.0 KHz
Compression mode : Lossy
Stream size : 272 MiB (3%)
Language : Russian
Default : Yes
Forced : No
DURATION : 01:39:02.071000000
NUMBER_OF_FRAMES : 142467
NUMBER_OF_BYTES : 7091656771
_STATISTICS_WRITING_APP : mkvmerge v8.3.0 ('Over the Horizon') 64bit
_STATISTICS_WRITING_DATE_UT : 2015-10-22 22:44:14
_STATISTICS_TAGS : BPS DURATION NUMBER_OF_FRAMES NUMBER_OF_BYTES

Audio #2
ID : 3
Format : DTS
Format/Info : Digital Theater Systems
Mode : 16
Format settings, Endianness : Big
Codec ID : A_DTS
Duration : 1h 39mn
Bit rate mode : Constant
Bit rate : 1 509 Kbps
Channel(s) : 6 channels
Channel positions : Front: L C R, Side: L R, LFE
Sampling rate : 48.0 KHz
Bit depth : 24 bits
Compression mode : Lossy
Stream size : 1.04 GiB (13%)
Language : English
Default : No
Forced : No

Menu
00:00:00.000 : en:00:00:00.000
00:11:56.674 : en:00:11:56.674
00:20:55.379 : en:00:20:55.379
00:29:27.140 : en:00:29:27.140
00:40:54.619 : en:00:40:54.619
00:47:55.664 : en:00:47:55.664
01:00:23.286 : en:01:00:23.286
01:09:41.803 : en:01:09:41.803
01:20:52.473 : en:01:20:52.473
01:28:00.442 : en:01:28:00.442
01:34:51.936 : en:01:34:51.936
Свернуть

Скриншоты
Изображение
Изображение
Изображение
Свернуть
Изображение


Изображение Изображение
_________________
Не ищите меня в "ВКонтакте", в "Одноклассниках" меня нет - я на трекерах сижу!
Не в сети
Профиль  
 Добавлено: 2015-10-24 09:23 (спустя 21 минута)
RG-ELEKTRO
Аватара пользователя
Стаж: 2 года 3 месяца
Сообщений: 7928
Спасибок: 53761
Лайков: 3304
"не для ДжоNNи"
_________________
Не ищите меня в "ВКонтакте", в "Одноклассниках" меня нет - я на трекерах сижу!
Не в сети
Профиль  
Начать новую темуОтветить на тему  [ Сообщений: 2 ] 
Вы не можете начинать темы
Вы не можете отвечать на сообщения
Вы не можете редактировать свои сообщения
Вы не можете удалять свои сообщения