Правила форума

  • В этом разделе создание новых тем Запрещено.
  • Для создания новых тем пользуйтесь Корневым разделом DVD и HD фильмы.
Начать новую темуОтветить на тему  [ Сообщений: 3 ] 
Торрент файл
Размер: 7.96 GB • Зарегистрирован: 2 года 10 месяцев • Статус: Проверено
Скачан: 39 раз • Желающих скачать: 0 • Поблагодарили: 18 раз
 Раздают: 1  |  0 KB/s  ]   Качают: 0  |  0 KB/s  ] 
Сообщения
 Добавлено: 2014-01-24 19:44
Аватара пользователя
Стаж: 3 года 6 месяцев
Сообщений: 175
Спасибок: 4258
Лайков: 29
Каньоны / The Canyons

Изображение


Год выпуска: 2013
Страна: США (Prettybird, Post Empire Films, Sodium Fox)
Жанр: Триллер, Драма
Продолжительность: 01:39:27
Перевод: Профессиональный (дубляж) [Лицензия]
Субтитры: Английские, вшитые отключаемые

Режиссёр: Пол Шредер
В ролях: Линдси Лохан, Джеймс Дин, Нолан Фанк, Аманда Брукс, Тениль Хьюстон, Гас Ван Сент, Джарод Эйнсон, Виктор Фишбарг, Джим Бивен
Описание: Фильм о судьбе двух влюбленных в «городе греха» Лос-Анджелесе. Они молоды, жаждут славы и денег, одержимы страстью. По законам жанра, где-то рядом, естественно, оказывается смерть, и цепочка кровавых событий приводит к неожиданным последствиям.
Доп.информация: Сохранены оригинальные чаптеры как на Blu-Ray
Мировая премьера: 29 июля 2013
Премьера в России: 28 ноября 2013, «Top Film Distribution»
Изображение
Изображение

Качество: BDRip 1080p
Формат: MKV
Видео кодек: MPEG-4 AVC/H.264
Аудио кодек: AC3 (Dolby Digital), DTS
Видео: H264, 9502 Кбит/с, 1920x816, 23.976 кадр/с
Аудио #1: Русский: AC3, 5.1, 448 Кбит/с, 48 kHz, 16 bit
Аудио #2: Английский: DTS, 5.1, 1536 Кбит/с, 48 kHz, 24 bit
Изображение
Скриншоты
Изображение
Изображение
Изображение
Изображение
Изображение
Свернуть

Знаете ли Вы, что...
* Джейсону Судейкису предлагали роль доктора Кэмпбелла.
* Роль Рида предлагали Джереми Реннеру.
* Стивен Содерберг хотел смонтировать фильм, но Пол Шредер ему отказал.
* Съемочный процесс фильма описан в нашумевшей статье Here is what happens when you cast Lindsay Lohan in your movie («Вот что происходит, когда вы берете Линдси Лохан на роль в своем фильме») журнала The New York Times.
* Большая часть бюджета для проекта была получена благодаря кампании, проведенной на сайте kickstarter.com.
* На протяжении всех съемок Лесли Коттеранд была готова в любой момент заменить Линдси Лохан в связи с ее постоянными опозданиями и неявками на съемочную площадку, а также ссорами с режиссером Полом Шредером и актером Джеймсом Дином.
* Во время съемок сексуальных сцен режиссер Пол Шредер тоже был голым, чтобы тем самым успокоить Линдси Лохан.
* Брент Корригэн рассматривался на роль Райана.
Свернуть
Ошибки в фильме
* Внимание! Список ошибок в фильме может содержать спойлеры. Будьте осторожны.
* Когда Тара и Кристиан находятся у бассейна, солнечные очки Тары меняют свое положение при смене ракурса. Когда камера направлена на нее, очки находятся на носу, а когда камера направлена ей в спину, они расположены на голове.
Свернуть
MediaInfo
General
Unique ID : 174596989565091176552246935053428103059 (0x835A2833CB7EB34FB595C68EEECC9793)
Complete name : F:\ФИЛЬМЫ\The.Canyons.2013.Dub.x264.BluRay.1080p.Rus.Eng.mkv
Format : Matroska
Format version : Version 1
File size : 7.96 GiB
Duration : 1h 39mn
Overall bit rate : 11.5 Mbps
Movie name : FiREBiT.ORG
Encoded date : UTC 2014-01-23 20:51:50
Writing application : mkvmerge v2.3.0 ('Freak U') built on Sep 8 2008 18:32:16
Writing library : libebml v0.7.7 + libmatroska v0.8.1

Video
ID : 1
Format : AVC
Format/Info : Advanced Video Codec
Format profile : High@L4.1
Format settings, CABAC : Yes
Format settings, ReFrames : 5 frames
Codec ID : V_MPEG4/ISO/AVC
Duration : 1h 39mn
Bit rate : 9 502 Kbps
Width : 1 920 pixels
Height : 816 pixels
Display aspect ratio : 2.35:1
Frame rate mode : Constant
Frame rate : 23.976 fps
Color space : YUV
Chroma subsampling : 4:2:0
Bit depth : 8 bits
Scan type : Progressive
Bits/(Pixel*Frame) : 0.253
Stream size : 6.44 GiB (81%)
Title : http://firebit.org
Writing library : x264 core 140 r2377 1ca7bb9
Encoding settings : cabac=1 / ref=5 / deblock=1:0:0 / analyse=0x3:0x133 / me=umh / subme=7 / psy=1 / psy_rd=1.00:0.00 / mixed_ref=1 / me_range=16 / chroma_me=1 / trellis=1 / 8x8dct=1 / cqm=0 / deadzone=21,11 / fast_pskip=0 / chroma_qp_offset=-2 / threads=36 / lookahead_threads=6 / sliced_threads=0 / nr=0 / decimate=1 / interlaced=0 / bluray_compat=0 / constrained_intra=0 / bframes=3 / b_pyramid=2 / b_adapt=1 / b_bias=0 / direct=1 / weightb=1 / open_gop=0 / weightp=2 / keyint=250 / keyint_min=23 / scenecut=40 / intra_refresh=0 / rc_lookahead=40 / rc=2pass / mbtree=1 / bitrate=9502 / ratetol=1.0 / qcomp=0.60 / qpmin=0 / qpmax=69 / qpstep=4 / cplxblur=20.0 / qblur=0.5 / ip_ratio=1.40 / aq=1:1.00
Language : English
Default : Yes
Forced : No

Audio #1
ID : 2
Format : AC-3
Format/Info : Audio Coding 3
Mode extension : CM (complete main)
Format settings, Endianness : Big
Codec ID : A_AC3
Duration : 1h 39mn
Bit rate mode : Constant
Bit rate : 448 Kbps
Channel(s) : 6 channels
Channel positions : Front: L C R, Side: L R, LFE
Sampling rate : 48.0 KHz
Bit depth : 16 bits
Compression mode : Lossy
Stream size : 319 MiB (4%)
Title : http://firebit.org
Language : Russian
Default : Yes
Forced : No

Audio #2
ID : 3
Format : DTS
Format/Info : Digital Theater Systems
Mode : 16
Format settings, Endianness : Big
Codec ID : A_DTS
Duration : 1h 39mn
Bit rate mode : Constant
Bit rate : 1 509 Kbps
Channel(s) : 6 channels
Channel positions : Front: L C R, Side: L R, LFE
Sampling rate : 48.0 KHz
Bit depth : 24 bits
Compression mode : Lossy
Stream size : 1.05 GiB (13%)
Title : http://firebit.org
Language : English
Default : No
Forced : No

Text #1
ID : 4
Format : UTF-8
Codec ID : S_TEXT/UTF8
Codec ID/Info : UTF-8 Plain Text
Title : http://firebit.org
Language : English
Default : Yes
Forced : No

Text #2
ID : 5
Format : UTF-8
Codec ID : S_TEXT/UTF8
Codec ID/Info : UTF-8 Plain Text
Title : http://firebit.org
Language : English
Default : No
Forced : No
Свернуть
Не в сети
Профиль  
 Добавлено: 2014-01-30 21:29 (спустя 6 дней)
Аватара пользователя
Стаж: 8 лет 7 месяцев
Сообщений: 52
Лайков: 3
Что за бред? О чём фильм? Это полностью оторванно от действительности, и сочинить такое мог только законченный извращенец. История без начала и конца и без определённого сюжета, о геях, об сумасшедших, о их бабах и о других прелестях нашего светлого западного общества. Люди, редкое исключение когда я пишу пост, без необходимости я обычно этого не делаю- не смотрите этот выкидыш кинематографа, дабы как минимум не испортить себе настроение на близжайшие дни........
 maksimka2010 нравится это.
Не в сети
Профиль  
 Добавлено: 2014-02-04 17:44 (спустя 4 дня)
Аватара пользователя
Стаж: 8 лет
Возраст: 29
Сообщений: 60
говно.
Не в сети
Профиль  
Начать новую темуОтветить на тему  [ Сообщений: 3 ] 
Вы не можете начинать темы
Вы не можете отвечать на сообщения
Вы не можете редактировать свои сообщения
Вы не можете удалять свои сообщения