Правила форума

  • В этом разделе создание новых тем Запрещено.
  • Для создания новых тем пользуйтесь Корневым разделом DVD и HD фильмы.
Начать новую темуОтветить на тему  [ 1 сообщение ] 
Торрент файл
Размер: 4.33 GB • Зарегистрирован: 5 лет 7 месяцев • Статус: Проверено
Скачан: 93 раза • Желающих скачать: 0 • Поблагодарили: 23 раза
 Раздают: 0  |  0 KB/s  ]   Качают: 0  |  0 KB/s  ] 
 Полного источника не было 11 месяцев 
Сообщения
 Добавлено: 2011-04-25 17:27
Аватара пользователя
Стаж: 9 лет
Возраст: 27
Сообщений: 1386
Спасибок: 16115
Лайков: 14
Изображение

Карты, деньги и два ствола / Lock, Stock and Two Smoking Barrels

«They lost half a million at cards but they've still got a few tricks up their sleeve»

Год выпуска: 1998
Страна: Изображение Великобритания
Жанр: триллер, криминал
Продолжительность: 01:42:47
Перевод: Профессиональный (Многоголосый закадровый)

Режиссер: Гай Ричи
Сценарий: Гай Ричи
Продюсер: Мэттью Вон, Стефен Маркс, Джон Слэн
Оператор: Тим Морис-Джонс
Композитор: Дэвид А. Хьюз, Джон Мерфи

В ролях: Джейсон Стэтхэм, Ник Моран, Джейсон Флеминг, Декстер Флетчер, Винни Джонс, Стинг, Стивен Макинтош, Николас Роу, Ник Марк, Чарльз Форбс

Описание: Четверо молодых парней накопили каждый по 25 тысяч фунтов, чтобы один из них мог сыграть в карты с опытным шулером и матерым преступником, известным по кличке Гарри-Топор. Парень в итоге проиграл 500 тысяч, на уплату долга ему дали неделю.
В противном случае и ему и его «спонсорам» каждый день будут отрубать по пальцу, а потом… Чтобы выйти из положения, ребята решили ограбить бандитов, решивших ограбить трех «ботаников», выращивающих марихуану для местного наркобарона. Но на этом приключения четверки не заканчиваются…

Релиз: Изображение

Раздача: Изображение

Изображение

Доп. информация
Бюджет: £960 000
Сборы в США: $3 753 929
Мировая премьера: 28 августа 1998
Релиз на DVD: 21 августа 2008, «Neoclassica»
Рейтинг R — Restricted. Подростки до 17 лет допускаются на фильм только в сопровождении одного из родителей
Изображение
Ограничение — до 17 лет требуется сопровождение родителя или взрослого опекуна (возраст может меняться в некоторых регионах). Данный рейтинг показывает, что оценочная комиссия заключила, что некоторый материал оценённого фильма предназначается для взрослых. Родители должны больше узнать о фильме прежде, чем взять на его просмотр детей. Рейтинг R также может быть назначен из-за используемого в фильме языка, темы, насилия, секса или изображения употребления наркотиков.
Свернуть
Свернуть
Знаете ли вы, что...
* Ленни МакКлин (баптист Барри) прежде, чем стать актером, профессионально занимался боксом (без перчаток). Ему же и был посвящен этот фильм, после того, как поступило известие о смерти актера от рака за месяц до премьеры.
* Сцены, в которой Ник «Пузырь» разбивает стекло об стол, не было в первоначальном сценарии. Этот инцидент произошел непосредственно во время съемок, и Гай Риччи решил вставить его в итоговый вариант фильма, подвергнув сценарий незначительным изменениям.
* На свой первый съемочный день Винни Джонс отправился прямиком из полицейского участка. Он был арестован за избиение своего соседа.
* Гай Ричи никак не мог определиться с концовкой своего фильма, поэтому ее пришлось снимать несколько раз. Именно по этой причине голову Тома покрывает головной убор. За время, прошедшее с момента, казалось бы, окончательного завершения съемочного процесса, актер успел отрастить волосы и наотрез отказался их укорачивать.
* Джейсон Стетхэм до знакомства с Гаем Риччи работал уличным продавцом. В самом начале картины ему пришлось сыграть самого себя в бывшей ипостаси.
* Короткометражка под названием «The Hard Case» («Трудный выбор») - 20-минутный фильм по сюжету является предысторией фильма «Карты, деньги, два ствола»
* История создания этого фильма тесно связана с именем Труди Стайлер, жены Стинга. Она увидела короткометражку и рискнула вложить деньги в проект перспективного режиссера.
* В фильме насчитывается 19 трупов.
* Человека, которого окунает головой в бочку Барри «Баптист» в начале фильма, сыграл оператор Тим Морис-Джонс.
* Каталог антикварного оружия, который появляется в конце фильма, называется «Botheby’s» — пародия на реально существующий в Англии «Sotheby’s».
* В комментарии футбольного матча, который смотрит Рори в пабе, упоминаются в качестве игроков режиссёр и автор сценария Гай Ричи и продюсер Мэттью Вон.
* Оригинальное название является игрой слов, поскольку в основе содержит старую английскую идиому «lock, stock and barrel» (цевье, затвор и ствол), соответствующую нашему «всё и сразу».
* Прототипом Большого Криса стал реальный рэкетир Дэйв Кортни.
* За фильм слово «fuck» произносится 125 раз.
Свернуть
Награды и номинации
Изображение
Премия канала «MTV», 1999 год
Победитель (1):
* Лучший режиссер-новичок (Гай Ричи)



Изображение
Британская академия, 1999 год
Победитель (1):
* Приз зрительских симпатий
Номинации (2):
* Лучший монтаж
* Премия имени Александра Корды за самый выдающийся британский фильм года
Свернуть

Изображение

Качество: BDRip 1080p
Формат: MKV
Видео: 1920x1040, 5376 Кбит/сек, 23,976 кадр/сек, AVC, x264, 16:9, 0.112 Бит/(Пиксели*Кадры)
Аудио: AC-3, 448 Кбит/сек, 6 канала(ов), 48,0 КГц


Скриншоты

Изображение

Изображение

Изображение
Свернуть

MI
Формат : Matroska
Размер файла : 4,33 Гбайт
Продолжительность : 1 ч. 47 м.
Общий поток : 5778 Кбит/сек
Название фильма : Rip by Tembr
Дата кодирования : UTC 2011-03-10 11:57:19
Программа кодирования : mkvmerge v3.2.0 ('Beginnings') built on Feb 12 2010 16:46:17
Библиотека кодирования : libebml v0.7.9 + libmatroska v0.8.1

Видео
Идентификатор : 1
Формат : AVC
Формат/Информация : Advanced Video Codec
Профиль формата : High@L4.1
Параметр CABAC формата : Да
Параметр ReFrames формата : 3 кадра
Параметры GOP формата : M=4, N=24
Идентификатор кодека : V_MPEG4/ISO/AVC
Продолжительность : 1 ч. 47 м.
Вид битрейта : Переменный
Битрейт : 5376 Кбит/сек
Максимальный битрейт : 17,5 Мбит/сек
Ширина : 1920 пикс.
Высота : 1040 пикс.
Соотношение сторон : 16:9
Соотношение сторон в оригинале : 16:9
Частота кадров : 23,976 кадр/сек
Цветовое пространство : YUV
Подвыборка цветности : 4:2:0
Битовая глубина : 8 бит
Тип развёртки : Прогрессивная
Бит/(Пиксели*Кадры) : 0.112
Размер потока : 3,91 Гбайт (90%)
Заголовок : Карты, деньги и два ствола.[NoLimits-Team.ru]
Библиотека кодирования : x264 core 112 r1867 22bfd31
Настройки программы : cabac=1 / ref=1 / deblock=1:0:0 / analyse=0x3:0x3 / me=dia / subme=1 / psy=1 / psy_rd=0.00:0.00 / mixed_ref=0 / me_range=16 / chroma_me=1 / trellis=0 / 8x8dct=1 / cqm=0 / deadzone=21,11 / fast_pskip=1 / chroma_qp_offset=0 / threads=3 / sliced_threads=0 / slices=4 / nr=0 / decimate=1 / interlaced=0 / constrained_intra=0 / bframes=3 / b_pyramid=1 / b_adapt=1 / b_bias=0 / direct=1 / weightb=1 / open_gop=0 / weightp=1 / keyint=24 / keyint_min=1 / scenecut=40 / intra_refresh=0 / rc_lookahead=0 / rc=abr / mbtree=0 / bitrate=5376 / ratetol=1.0 / qcomp=0.60 / qpmin=0 / qpmax=51 / qpstep=4 / vbv_maxrate=17500 / vbv_bufsize=14500 / nal_hrd=vbr / ip_ratio=1.10 / pb_ratio=1.10 / aq=1:1.00
Язык : English

Аудио
Идентификатор : 2
Формат : AC-3
Формат/Информация : Audio Coding 3
Расширение режима : CM (complete main)
Идентификатор кодека : A_AC3
Продолжительность : 1 ч. 47 м.
Вид битрейта : Постоянный
Битрейт : 448 Кбит/сек
Каналы : 6 каналов
Расположение каналов : Front: L C R, Side: L R, LFE
Частота : 48,0 КГц
Битовая глубина : 16 бит
Метод сжатия : С потерями
Размер потока : 344 Мбайт (8%)
Заголовок : Профессиональный многоголосый (Киномания)
Язык : Russian
Свернуть
Оформление раздачи:
Совунья


Последний раз редактировалось Gloom 2011-04-25 17:53, всего редактировалось 3 раз(а).
Не в сети
Профиль  
Начать новую темуОтветить на тему  [ 1 сообщение ] 
Вы не можете начинать темы
Вы не можете отвечать на сообщения
Вы не можете редактировать свои сообщения
Вы не можете удалять свои сообщения