Правила форума

  • В этом разделе создание новых тем Запрещено.
  • Для создания новых тем пользуйтесь Корневым разделом DVD и HD фильмы.
Начать новую темуОтветить на тему  [ Сообщений: 2 ] 
Торрент файл
Размер: 4.54 GB • Зарегистрирован: 2 года 10 месяцев • Статус: * Не проверено
Скачан: 12 раз • Желающих скачать: 0 • Поблагодарили: 10 раз
 Раздают: 1  |  0 KB/s  ]   Качают: 0  |  0 KB/s  ] 
Сообщения
 Добавлено: 2014-01-24 16:56
Аватара пользователя
Стаж: 4 года 1 месяц
Сообщений: 12
Спасибок: 268
Лайков: 2
Кассадага / Cassadaga

Изображение


Год выпуска: 2011
Страна: США (Poiley Wood Entertainment)
Слоган: «Здесь живёт зло»
Жанр: Ужасы, триллер
Продолжительность: 01:48:04
Версия фильма: Unrated / Полная версия
Перевод: Профессиональный (Полное дублирование) + Оригинальная звуковая дорожка
Субтитры: Нет

Режиссёр: Энтони ДиБлейси
Сценарист: Брюс Вуд, Скотт Пойли
Продюсер: Скотт Пойли, Брюс Вуд, Майкл Финн
Оператор: Хосе Самбрано Касселья
Композитор: Дани Донади
В ролях: Луиза Флетчер, Кевин Алехандро, Келен Коулмэн, Люсиус Бастон мл., Рас Блэквелл, Дж. ЛаРоуз, Брук Безик, Кристина Бах, Николас Вульф, Хэнк Стоун и другие
Описание: Кассадага — название городка во Флориде, население которого составляет чуть больше 200 человек. Говорят, его населяют люди с паранормальными способностями, которым платят большие деньги за сеансы всегда стремящиеся попасть туда туристы. Фильм рассказывает о том, что не стоит вызывать души своих умерших сестер, как бы по ним не скучали родственники, потому что призраки не любят, когда их тревожат…
Рейтинг MPAA: Рейтинг R (Подростки до 17 лет допускаются на фильм только в сопровождении одного из родителей)
Мировая премьера: 22 октября 2011
Премьера в России: 31 мая 2012
Изображение 5.339 (2614)
Изображение 5.30 (1717)

Качество: BDRip 720p
Формат: MKV
Видео кодек: V_MPEG4/ISO/AVC
Аудио кодек: A_AC3
Видео: 1280x544, 4278 Кбит/сек, 25,000 кадров/сек, 0.246 bit/pixel
Аудио #1: A_AC3, 2 канала, 224 Кбит/сек [Профессиональный (Полное дублирование)]
Аудио #2: A_DTS, 6 каналов, 1509 Кбит/сек [Оригинальная звуковая дорожка]
Субтитры: Нет
Скриншоты
Изображение
Изображение
Изображение
Изображение
Свернуть

MediaInfo
Общее
Формат : MKV
Версия формата : Version 2
Размер файла : 4,54 Гбайт
Продолжительность : 1 ч. 48 м.
Общий поток : 6013 Кбит/сек
Название фильма : Cassadaga (2011) BDRip 720p
Дата кодирования : UTC 2012-05-31 20:47:52

Видео
Идентификатор : 1
Формат : AVC
Формат/Информация : Advanced Video Codec
Профиль формата : High@L3.1
Параметр CABAC формата : Да
Параметр ReFrames формата : 5 кадров
Идентификатор кодека : V_MPEG4/ISO/AVC
Продолжительность : 1 ч. 48 м.
Битрейт : 4278 Кбит/сек
Ширина : 1280 пикселей
Высота : 544 пикселя
Соотношение сторон : 2,35:1
Режим частоты кадров : Постоянный
Частота кадров : 25,000 кадров/сек
Цветовое пространство : YUV
Субдискретизация насыщенности : 4:2:0
Битовая глубина : 8 бит
Тип развёртки : Прогрессивная
Бит/(Пиксели*Кадры) : 0.246
Размер потока : 3,14 Гбайт (69%)
Заголовок : Cassadaga (2011) BDRip 720p IRONCLUB
Библиотека кодирования : x264 core 125 r2200 999b753
Язык : English
Default : Да
Forced : Да

Аудио #1
Идентификатор : 2
Формат : AC-3
Формат/Информация : Audio Coding 3
Расширение режима : CM (complete main)
Параметр Endianness формата : Big
Идентификатор кодека : A_AC3
Продолжительность : 1 ч. 48 м.
Вид битрейта : Постоянный
Битрейт : 224 Кбит/сек
Каналы : 2 канала
Расположение каналов : Front: L R
Частота : 48,0 КГц
Битовая глубина : 16 бит
Метод сжатия : С потерями
Размер потока : 173 Мбайт (4%)
Заголовок : AC3 2.0 224 kbps - Dub
Язык : Russian
Default : Да
Forced : Да

Аудио #2
Идентификатор : 3
Формат : DTS
Формат/Информация : Digital Theater Systems
Режим : 16
Параметр Endianness формата : Big
Идентификатор кодека : A_DTS
Продолжительность : 1 ч. 48 м.
Вид битрейта : Постоянный
Битрейт : 1509 Кбит/сек
Каналы : 6 каналов
Расположение каналов : Front: L C R, Side: L R, LFE
Частота : 48,0 КГц
Битовая глубина : 24 бит
Метод сжатия : С потерями
Размер потока : 1,14 Гбайт (25%)
Заголовок : DTS 5.1 @ 1536 kbps
Язык : English
Default : Нет
Forced : Нет
Свернуть

Изображение
_________________
Изображение
Не в сети
Профиль  
 Добавлено: 2014-01-24 23:22 (спустя 6 часов)
Аватара пользователя
Стаж: 7 лет 4 месяца
Сообщений: 36
Ну и мудятина ... :ze_le_ny:
Не в сети
Профиль  
Начать новую темуОтветить на тему  [ Сообщений: 2 ] 
Вы не можете начинать темы
Вы не можете отвечать на сообщения
Вы не можете редактировать свои сообщения
Вы не можете удалять свои сообщения