Правила форума

  • В этом разделе создание новых тем Запрещено.
  • Для создания новых тем пользуйтесь Корневым разделом DVD и HD фильмы.
Начать новую темуОтветить на тему  [ Сообщений: 2 ] 
Торрент файл
Размер: 10.19 GB • Зарегистрирован: 1 год 7 месяцев • Статус: Проверено
Скачан: 311 раз • Желающих скачать: 0 • Поблагодарили: 56 раз
 Раздают: 1  |  0 KB/s  ]   Качают: 0  |  0 KB/s  ] 
Сообщения
 Добавлено: 2015-05-01 08:41
DVD Release Group
Аватара пользователя
Стаж: 7 лет 1 месяц
Сообщений: 3549
Спасибок: 247054
Лайков: 1018
Кибер

Blackhat


Изображение


Год выпуска: 2015
Страна: США
Жанр: Боевик, триллер, драма, криминал, детектив
Продолжительность: 02:13:34
Перевод: Профессиональный (полное дублирование)
Примечание: отсутствует перевод с 00:26:38 по 00:27:25
Режиссер: Майкл Манн
В ролях: Крис Хемсворт, Ван Лихом, Тан Вэй, Виола Дэвис, Холт МакКэллани, Энди Он, Ричи Костер, Кристиан Борл, Джон Ортис, Йорик ван Вагенинген
Описание: Спокойная, размеренная жизнь современного мирового пространства. Кажется, что ничто не может нарушить равномерный, плавный ход событий, жизнь настолько механизирована, все рассчитано до мельчайшей детали, что, казалось бы, что может произойти? Какое событие может выбить из колеи столь идеально отлаженную машину? Однако именно разработки в области новейших технологий представляют главную угрозу человечеству. Лучшие ученые умы из США и Китая объединяют силы в борьбе против самой мощной кибернетической атаки.
Изображение
Качество: BDRip 1080p
Формат: MKV
Видео кодек: H.264
Аудио кодек: AC3, DTS
Видео: 1920x800 23.98fps 9032kbps
Аудио:
Аудио Rus: AC3 48kHz 6ch 384Kbps
Аудио Eng: DTS 48kHz 6ch 1510Kbps
"MediaInfo"
Формат : Matroska
Версия формата : Version 2
Размер файла : 10,2 Гбайт
Продолжительность : 2 ч. 13 м.
Общий поток : 10,9 Мбит/сек
Дата кодирования : UTC 2015-04-30 23:04:30
Программа кодирования : mkvmerge v7.8.0 ('River Man') 64bit built on Mar 27 2015 16:31:37
Библиотека кодирования : libebml v1.3.1 + libmatroska v1.4.2
DURATION : 02:13:34.048000000
NUMBER_OF_FRAMES : 751317
NUMBER_OF_BYTES : 1511649804
_STATISTICS_WRITING_APP : mkvmerge v7.8.0 ('River Man') 64bit built on Mar 27 2015 16:31:37
_STATISTICS_WRITING_DATE_UTC : 2015-04-30 23:04:30
_STATISTICS_TAGS : BPS DURATION NUMBER_OF_FRAMES NUMBER_OF_BYTES

Видео
Идентификатор : 1
Формат : AVC
Формат/Информация : Advanced Video Codec
Профиль формата : High@L4.1
Параметр CABAC формата : Да
Параметр ReFrames формата : 5 кадров
Идентификатор кодека : V_MPEG4/ISO/AVC
Продолжительность : 2 ч. 13 м.
Битрейт : 9032 Кбит/сек
Ширина : 1920 пикселей
Высота : 800 пикселей
Соотношение сторон : 2,40:1
Режим частоты кадров : Постоянный
Частота кадров : 23,976 кадра/сек
Цветовое пространство : YUV
Субдискретизация насыщенности : 4:2:0
Битовая глубина : 8 бит
Тип развёртки : Прогрессивная
Бит/(Пиксели*Кадры) : 0.245
Размер потока : 8,22 Гбайт (81%)
Библиотека кодирования : x264 core 144 r2525 40bb568
Настройки программы : cabac=1 / ref=5 / deblock=1:0:0 / analyse=0x3:0x133 / me=umh / subme=7 / psy=1 / psy_rd=1.00:0.00 / mixed_ref=1 / me_range=16 / chroma_me=1 / trellis=1 / 8x8dct=1 / cqm=0 / deadzone=21,11 / fast_pskip=0 / chroma_qp_offset=-2 / threads=60 / lookahead_threads=6 / sliced_threads=0 / nr=0 / decimate=1 / interlaced=0 / bluray_compat=0 / constrained_intra=0 / bframes=3 / b_pyramid=2 / b_adapt=1 / b_bias=0 / direct=1 / weightb=1 / open_gop=0 / weightp=2 / keyint=250 / keyint_min=23 / scenecut=40 / intra_refresh=0 / rc_lookahead=40 / rc=2pass / mbtree=1 / bitrate=9032 / ratetol=1.0 / qcomp=0.60 / qpmin=0 / qpmax=69 / qpstep=4 / cplxblur=20.0 / qblur=0.5 / ip_ratio=1.40 / aq=1:1.00
Язык : English
Default : Да
Forced : Нет
DURATION : 02:13:34.019000000
NUMBER_OF_FRAMES : 192144
NUMBER_OF_BYTES : 9044708390
_STATISTICS_WRITING_APP : mkvmerge v7.8.0 ('River Man') 64bit built on Mar 27 2015 16:31:37
_STATISTICS_WRITING_DATE_UTC : 2015-04-30 23:04:30
_STATISTICS_TAGS : BPS DURATION NUMBER_OF_FRAMES NUMBER_OF_BYTES

Аудио #1
Идентификатор : 2
Формат : AC-3
Формат/Информация : Audio Coding 3
Расширение режима : CM (complete main)
Параметр Endianness формата : Big
Идентификатор кодека : A_AC3
Продолжительность : 2 ч. 13 м.
Вид битрейта : Постоянный
Битрейт : 384 Кбит/сек
Каналы : 6 каналов
Расположение каналов : Front: L C R, Side: L R, LFE
Частота : 48,0 КГц
Битовая глубина : 16 бит
Метод сжатия : С потерями
Размер потока : 367 Мбайт (4%)
Язык : Russian
Default : Да
Forced : Нет

Аудио #2
Идентификатор : 3
Формат : DTS
Формат/Информация : Digital Theater Systems
Режим : 16
Параметр Endianness формата : Big
Идентификатор кодека : A_DTS
Продолжительность : 2 ч. 13 м.
Вид битрейта : Постоянный
Битрейт : 1509 Кбит/сек
Каналы : 6 каналов
Расположение каналов : Front: L C R, Side: L R, LFE
Частота : 48,0 КГц
Битовая глубина : 24 бит
Метод сжатия : С потерями
Размер потока : 1,41 Гбайт (14%)
Язык : English
Default : Нет
Forced : Нет

Меню
00:00:00.000 : en:00:00:00.000
00:06:14.207 : en:00:06:14.207
00:13:43.281 : en:00:13:43.281
00:20:22.680 : en:00:20:22.680
00:28:04.933 : en:00:28:04.933
00:33:31.509 : en:00:33:31.509
00:38:03.364 : en:00:38:03.364
00:45:32.271 : en:00:45:32.271
00:55:34.998 : en:00:55:34.998
01:00:53.608 : en:01:00:53.608
01:08:17.218 : en:01:08:17.218
01:13:56.641 : en:01:13:56.641
01:21:20.626 : en:01:21:20.626
01:26:56.878 : en:01:26:56.878
01:34:12.188 : en:01:34:12.188
01:39:09.485 : en:01:39:09.485
01:44:23.007 : en:01:44:23.007
01:47:52.049 : en:01:47:52.049
01:55:05.857 : en:01:55:05.857
02:04:52.110 : en:02:04:52.110
Свернуть

"Скриншоты"
Изображение
Изображение
Изображение
Свернуть
 sashannov нравится это.
Не в сети
Профиль  
 Добавлено: 2016-06-03 23:47 (спустя 1 год 1 месяц)
Стаж: 7 лет 8 месяцев
Сообщений: 52
Лайков: 16
Такой бред ) Не смогла досмотреть. Хемсворт - хакер, угу... И эта история с китаянкой какая-то дурацкая и натянутая. В общем, не стоит времени и трафика.
Не в сети
Профиль  
Начать новую темуОтветить на тему  [ Сообщений: 2 ] 
Вы не можете начинать темы
Вы не можете отвечать на сообщения
Вы не можете редактировать свои сообщения
Вы не можете удалять свои сообщения