Правила форума

  • В этом разделе создание новых тем Запрещено.
  • Для создания новых тем пользуйтесь Корневым разделом DVD и HD фильмы.
Начать новую темуОтветить на тему  [ Сообщений: 3 ] 
Торрент файл
Размер: 1.28 GB • Зарегистрирован: 1 год 2 месяца • Статус: T Временный релиз
Скачан: 28 раз • Желающих скачать: 0 • Поблагодарили: 1 раз
 Раздают: 0  |  0 KB/s  ]   Качают: 0  |  0 KB/s  ] 
 Полного источника не было 3 месяца 13 дней 
Сообщения
 Добавлено: 2015-09-30 18:19
DVD Release Group
Аватара пользователя
Стаж: 7 лет 1 месяц
Сообщений: 3559
Спасибок: 247415
Лайков: 1018
Кибер-террор

Cyberbully


Изображение


Год выпуска: 2015
Страна: Великобритания
Жанр: Триллер, драма, детектив
Продолжительность: 01:01:48
Перевод: Профессиональный (многоголосый)
Режиссер: Бен Чанан
В ролях: Мэйси Уильямс, Элла Пернелл, Уилсон Хаагенс, Энтони Шустер, Харука Абе, Джейк Дейвис, Дейзи Уотерстон
Описание: Молодая девушка вынуждена выполнять все указания ненормального хакера, в противном случае её интимные фото попадут в сеть…
ИзображениеИзображение
Sample:
http://sendfile.su/1159652
Качество: WEB-DL 720p
Формат: MKV
Видео кодек: H.264
Аудио кодек: AC3
Видео: 1280x532 23.98fps 2569kbps
Аудио:
Аудио Rus: 48kHz 2ch 192kbps
Аудио Eng: 48kHz 2ch 192kbps
"MediaInfo"
Формат : Matroska
Версия формата : Version 4 / Version 2
Размер файла : 1,28 Гбайт
Продолжительность : 1 ч. 1 м.
Общий поток : 2954 Кбит/сек
Дата кодирования : UTC 2015-09-30 12:51:55
Программа кодирования : mkvmerge v6.8.0 ('Theme for Great Cities') 64bit built on Mar 2 2014 21:34:26
Библиотека кодирования : libebml v1.3.0 + libmatroska v1.4.1

Видео
Идентификатор : 1
Формат : AVC
Формат/Информация : Advanced Video Codec
Профиль формата : High@L4.0
Параметр CABAC формата : Да
Параметр ReFrames формата : 4 кадра
Идентификатор кодека : V_MPEG4/ISO/AVC
Продолжительность : 1 ч. 1 м.
Битрейт : 2569 Кбит/сек
Ширина : 1280 пикселей
Высота : 532 пикселя
Соотношение сторон : 2,40:1
Режим частоты кадров : Постоянный
Частота кадров : 25,000 кадров/сек
Цветовое пространство : YUV
Субдискретизация насыщенности : 4:2:0
Битовая глубина : 8 бит
Тип развёртки : Прогрессивная
Бит/(Пиксели*Кадры) : 0.151
Размер потока : 1,08 Гбайт (85%)
Библиотека кодирования : x264 core 142
Настройки программы : cabac=1 / ref=3 / deblock=1:0:0 / analyse=0x3:0x113 / me=hex / subme=7 / psy=1 / psy_rd=1.00:0.00 / mixed_ref=1 / me_range=16 / chroma_me=1 / trellis=1 / 8x8dct=1 / cqm=0 / deadzone=21,11 / fast_pskip=1 / chroma_qp_offset=-2 / threads=36 / lookahead_threads=4 / sliced_threads=0 / nr=0 / decimate=1 / interlaced=0 / bluray_compat=0 / constrained_intra=0 / bframes=6 / b_pyramid=2 / b_adapt=1 / b_bias=0 / direct=1 / weightb=1 / open_gop=0 / weightp=2 / keyint=200 / keyint_min=20 / scenecut=0 / intra_refresh=0 / rc_lookahead=40 / rc=2pass / mbtree=1 / bitrate=2569 / ratetol=1.0 / qcomp=0.60 / qpmin=0 / qpmax=69 / qpstep=4 / cplxblur=20.0 / qblur=0.5 / vbv_maxrate=3854 / vbv_bufsize=10279 / nal_hrd=none / filler=0 / ip_ratio=1.40 / aq=1:1.00
Язык : English
Default : Да
Forced : Нет

Аудио #1
Идентификатор : 2
Формат : AC-3
Формат/Информация : Audio Coding 3
Расширение режима : CM (complete main)
Параметр Endianness формата : Big
Идентификатор кодека : A_AC3
Продолжительность : 1 ч. 1 м.
Вид битрейта : Постоянный
Битрейт : 192 Кбит/сек
Каналы : 2 канала
Расположение каналов : Front: L R
Частота : 48,0 КГц
Битовая глубина : 16 бит
Метод сжатия : С потерями
Размер потока : 84,9 Мбайт (7%)
Язык : Russian
Default : Да
Forced : Да

Аудио #2
Идентификатор : 3
Формат : AC-3
Формат/Информация : Audio Coding 3
Расширение режима : CM (complete main)
Параметр Endianness формата : Big
Идентификатор кодека : A_AC3
Продолжительность : 1 ч. 1 м.
Вид битрейта : Постоянный
Битрейт : 192 Кбит/сек
Каналы : 2 канала
Расположение каналов : Front: L R
Частота : 48,0 КГц
Битовая глубина : 16 бит
Метод сжатия : С потерями
Размер потока : 84,9 Мбайт (7%)
Язык : English
Default : Нет
Forced : Нет
Свернуть

"Скриншоты"
Изображение
Изображение
Изображение
Свернуть
 vitso нравится это.
Не в сети
Профиль  
 Добавлено: 2015-09-30 19:39 (спустя 1 час 19 минут)
Аватара пользователя
Стаж: 8 лет 1 месяц
Сообщений: 128
Спасибок: 409
Лайков: 25
опять Арья в жопе? :-D
Не в сети
Профиль  
 Добавлено: 2015-10-01 18:56 (спустя 23 часа)
Аватара пользователя
Стаж: 7 лет 11 месяцев
Сообщений: 995
Лайков: 74

CHEbupa|_|_|Ka:

опять Арья в жопе? :-D
что такого в ней интимного?)) радовалась бы, что выложит в сеть ее фотки)
Не в сети
Профиль  
Начать новую темуОтветить на тему  [ Сообщений: 3 ] 
Вы не можете начинать темы
Вы не можете отвечать на сообщения
Вы не можете редактировать свои сообщения
Вы не можете удалять свои сообщения