Правила форума

  • В этом разделе создание новых тем Запрещено.
  • Для создания новых тем пользуйтесь Корневым разделом DVD и HD фильмы.
Начать новую темуОтветить на тему  [ 1 сообщение ] 
Торрент файл
Размер: 2.82 GB • Зарегистрирован: 1 год 11 месяцев • Статус: T Временный релиз
Скачан: 2 раза • Желающих скачать: 0 • Поблагодарили: 1 раз
 Раздают: 0  |  0 KB/s  ]   Качают: 0  |  0 KB/s  ] 
 Полного источника не было 8 часов 
Сообщения
 Добавлено: 2014-12-08 17:07
RG-ELEKTRO
Аватара пользователя
Стаж: 2 года 3 месяца
Сообщений: 7928
Спасибок: 53757
Лайков: 3304
Кинороман / Cinemanovels

Изображение


Выпущено: Канада / Cinemanovel Films
Год выхода: 2013
Жанр: Драма, мелодрама, комедия
Продолжительность: 01:30:38
Перевод: Профессиональный (многоголосый, закадровый) - Лицензия [R5]

Режиссер: Терри Майлз

В ролях: Лорен Ли Смит, Дженнифер Билз, Бен Коттон, Саpа Грей, Кэтрин Изабель

О фильме: Грейс в последние годы практически не общалась со своим отцом, легендарным канадским кинорежиссером Джоном Лореншеном. Поэтому она очень удивилась, когда ей предложили принять участие в подготовке ретроспективного показа его работ. Тем не менее, она соглашается, хоть и не смотрела ни одного из его фильмов. Случайно оказывается, что её сосед Адам является настоящим поклонником творчества её отца и предлагает ей свою помощь. Но чем больше Грейс узнаёт о работах отца, тем большее влияние они начинают оказывать на её судьбу.

Изображение

Качество: WEB-DL 720p
Формат: MKV
Видео: MPEG4/AVC, 1280x542 (2.35:1), 3910 Кбит/сек, 23.976 кадра/сек
Аудио: AC3, 6 каналов, 448 Кбит/сек | Русский
Субтитры: Английские (Forced - вшитые не отключаемые на французскую речь)

"MediaInfo:"
Общее
Уникальный идентификатор : 206209674481617634130468431355559767948 (0x9B2289E7A160EA06B0D1E709CFD36F8C)
Полное имя : Cinemanovels. (2013) WEB-DL 720p .mkv
Формат : Matroska
Версия формата : Version 2
Размер файла : 2,82 Гбайт
Продолжительность : 1 ч. 30 м.
Общий поток : 4447 Кбит/сек
Название фильма : Cinemanovels. 2013
Дата кодирования : UTC 2014-12-07 20:27:39
Программа кодирования : mkvmerge v5.8.0 ('No Sleep / Pillow') built on Sep 2 2012 15:37:04
Библиотека кодирования : libebml v1.2.3 + libmatroska v1.3.0

Видео
Идентификатор : 1
Формат : AVC
Формат/Информация : Advanced Video Codec
Профиль формата : Main@L3.1
Параметр CABAC формата : Нет
Параметр ReFrames формата : 2 кадра
Идентификатор кодека : V_MPEG4/ISO/AVC
Продолжительность : 1 ч. 30 м.
Битрейт : 3910 Кбит/сек
Ширина : 1280 пикселей
Высота : 542 пикселя
Соотношение сторон : 2,35:1
Режим частоты кадров : Постоянный
Частота кадров : 23,976 кадра/сек
Цветовое пространство : YUV
Субдискретизация насыщенности : 4:2:0
Битовая глубина : 8 бит
Тип развёртки : Прогрессивная
Бит/(Пиксели*Кадры) : 0.235
Размер потока : 2,48 Гбайт (88%)
Заголовок : RARBG
Язык : English
Default : Да
Forced : Нет
Основные цвета : BT.709
Характеристики трансфера : BT.709
Коэффициенты матрицы : BT.709

Аудио
Идентификатор : 2
Формат : AC-3
Формат/Информация : Audio Coding 3
Расширение режима : CM (complete main)
Параметр Endianness формата : Big
Идентификатор кодека : A_AC3
Продолжительность : 1 ч. 30 м.
Вид битрейта : Постоянный
Битрейт : 448 Кбит/сек
Каналы : 6 каналов
Расположение каналов : Front: L C R, Side: L R, LFE
Частота : 48,0 КГц
Битовая глубина : 16 бит
Метод сжатия : С потерями
Размер потока : 290 Мбайт (10%)
Заголовок : License | R5
Язык : Russian
Default : Да
Forced : Нет
Свернуть

"Скриншоты"
Изображение
Изображение
Изображение
Свернуть

_________________
Не ищите меня в "ВКонтакте", в "Одноклассниках" меня нет - я на трекерах сижу!
Не в сети
Профиль  
Начать новую темуОтветить на тему  [ 1 сообщение ] 
Вы не можете начинать темы
Вы не можете отвечать на сообщения
Вы не можете редактировать свои сообщения
Вы не можете удалять свои сообщения