Правила форума

  • В этом разделе создание новых тем Запрещено.
  • Для создания новых тем пользуйтесь Корневым разделом DVD и HD фильмы.
Начать новую темуОтветить на тему  [ Сообщений: 2 ] 
Торрент файл
Размер: 7.92 GB • Зарегистрирован: 4 года • Статус: Проверено
Скачан: 63 раза • Желающих скачать: 0 • Поблагодарили: 16 раз
 Раздают: 1  |  0 KB/s  ]   Качают: 0  |  0 KB/s  ] 
Сообщения
 Добавлено: 2012-11-07 14:37
Top-releaser
Аватара пользователя
Стаж: 8 лет 9 месяцев
Сообщений: 479
Спасибок: 20187
Лайков: 16
Изображение

Клик: С пультом по жизни

Click


«Представьте, что у вас появился уникальный пульт... Которым можно изменить всю вашу жизнь?»

Год выпуска: 2006
Страна: Изображение США; Columbia Pictures Corporation
Жанр: Фэнтези, драма, мелодрама, комедия
Продолжительность: 01:43:00
Перевод: Профессиональный (дублированный) [Лицензия], Оригинал
Субтитры: Русские, английские

Режиссёр: Фрэнк Корачи / Frank Coraci

В ролях: Адам Сэндлер, Кейт Бекинсейл, Кристофер Уокен, Дэвид Хасселхофф, Генри Уинклер, Джули Кавнер, Шон Эстин, Джозеф Кастанон, Йон Хилл, Джэйк Хоффман, Татум МакКанн, Лоррэйн Николсон, Кэти Кэссиди, Камерон Монахэн, Дженнифер Кулидж, Рэйчел Дрэч, Софи Монк

Описание: Архитектору-трудоголику попадает в руки пульт дистанционного управления, с помощью которого можно прокручивать жизненные ситуации вперед или назад. Но техника есть техника — у нее всегда сюрприз в запасе.

Накопив собственную память, пульт сам начинает управлять скоростью перемотки и выбором момента жизни. Только теперь герой понимает, как неверно он использовал время…



Качество: BDRip 1080p
Формат: MKV

Видео: AVC at 9720 Кбит/сек, 1920 x 1040 (1.846) at 23.976 fps

Аудио 1: AC3 Dolby Digital, 640 Кбит/сек, 6 канала(ов), 48,0 КГц [Дубляж]
Аудио 2: AC3 Dolby Digital, 640 Кбит/сек, 6 канала(ов), 48,0 КГц [Оригинал]
Раздача: Изображение


Изображение
MediaInfo

Общее
Уникальный идентификатор : 206669064156801884578645238065645218217 (0x9B7B039082B85BDEB53AA4B2F39FE9A9)
Полное имя : C:\Users\Домашний\Desktop\Klik.S.pultom.po.zhizni.2006..BDRip.1080p.[nntt].mkv
Формат : Matroska
Размер файла : 7,92 Гбайт
Продолжительность : 1 ч. 43 м.
Общий поток : 11,0 Мбит/сек
Дата кодирования : UTC 2009-05-11 14:24:49
Программа кодирования : mkvmerge v2.7.0 ('Do It Again') built on Apr 25 2009 13:15:32
Библиотека кодирования : libebml v0.7.7 + libmatroska v0.8.1

Видео
Идентификатор : 1
Формат : AVC
Формат/Информация : Advanced Video Codec
Профиль формата : High@L4.1
Параметр CABAC формата : Да
Параметр ReFrames формата : 4 кадры
Идентификатор кодека : V_MPEG4/ISO/AVC
Продолжительность : 1 ч. 43 м.
Битрейт : 9720 Кбит/сек
Ширина : 1920 пикс.
Высота : 1040 пикс.
Соотношение сторон : 16:9
Частота кадров : 23,976 кадр/сек
Цветовое пространство : YUV
Подвыборка цветности : 4:2:0
Битовая глубина : 8 бит
Тип развёртки : Прогрессивная
Бит/(Пиксели*Кадры) : 0.203
Размер потока : 6,84 Гбайт (86%)
Заголовок : Click
Библиотека кодирования : x264 core 67 r1145kAVAQ d2e1e1c
Настройки программы : cabac=1 / ref=4 / deblock=1:-3:-3 / analyse=0x3:0x133 / me=tesa / subme=9 / psy_rd=0.8:0.1 / mixed_ref=1 / me_range=16 / chroma_me=1 / trellis=2 / 8x8dct=1 / cqm=0 / deadzone=21,11 / chroma_qp_offset=-3 / threads=3 / thread_queue=3 / nr=0 / decimate=1 / mbaff=0 / bframes=3 / b_pyramid=1 / b_adapt=2 / b_bias=0 / direct=3 / wpredb=1 / keyint=240 / keyint_min=1 / scenecut=40 / rc=2pass / bitrate=9720 / ratetol=3.0 / qcomp=0.80 / qpmin=7 / qpmax=35 / qpstep=4 / cplxblur=20.0 / qblur=0.5 / vbv_maxrate=40000 / vbv_bufsize=62500 / ip_ratio=1.30 / pb_ratio=1.20 / aq=1:1.60
Язык : Russian

Аудио #1
Идентификатор : 2
Формат : AC-3
Формат/Информация : Audio Coding 3
Расширение режима : CM (complete main)
Идентификатор кодека : A_AC3
Продолжительность : 1 ч. 43 м.
Вид битрейта : Постоянный
Битрейт : 640 Кбит/сек
Канал(ы) : 6 канала(ов)
Расположение каналов : Front: L C R, Side: L R, LFE
Частота : 48,0 КГц
Битовая глубина : 16 бит
Метод сжатия : С потерями
Размер потока : 471 Мбайт (6%)
Заголовок : Click
Язык : Russian

Аудио #2
Идентификатор : 3
Формат : AC-3
Формат/Информация : Audio Coding 3
Расширение режима : CM (complete main)
Идентификатор кодека : A_AC3
Продолжительность : 1 ч. 43 м.
Вид битрейта : Постоянный
Битрейт : 640 Кбит/сек
Канал(ы) : 6 канала(ов)
Расположение каналов : Front: L C R, Side: L R, LFE
Частота : 48,0 КГц
Битовая глубина : 16 бит
Метод сжатия : С потерями
Размер потока : 471 Мбайт (6%)
Заголовок : Click
Язык : English

Текст #1
Идентификатор : 4
Формат : UTF-8
Идентификатор кодека : S_TEXT/UTF8
Идентификатор кодека/Информация : UTF-8 Plain Text
Заголовок : Click
Язык : Russian

Текст #2
Идентификатор : 5
Формат : VobSub
Режим смешивания : zlib
Идентификатор кодека : S_VOBSUB
Идентификатор кодека/Информация : The same subtitle format used on DVDs
Заголовок : Click
Язык : English


Свернуть
Скриншоты

Изображение
Изображение
Изображение
Изображение
Изображение
Изображение
Свернуть
_________________
Изображение
Изображение
Не в сети
Профиль  
 Добавлено: 2012-11-16 16:40 (спустя 9 дней)
Стаж: 8 лет 6 месяцев
Сообщений: 39
Адам в своём репертуаре
Не в сети
Профиль  
Начать новую темуОтветить на тему  [ Сообщений: 2 ] 
Вы не можете начинать темы
Вы не можете отвечать на сообщения
Вы не можете редактировать свои сообщения
Вы не можете удалять свои сообщения