Правила форума

  • В этом разделе создание новых тем Запрещено.
  • Для создания новых тем пользуйтесь Корневым разделом DVD и HD фильмы.
Начать новую темуОтветить на тему  [ Сообщений: 2 ] 
Торрент файл
Размер: 3.99 GB • Зарегистрирован: 3 года 6 месяцев • Статус: Проверено
Скачан: 30 раз • Желающих скачать: 0 • Поблагодарили: 8 раз
 Раздают: 0  |  0 KB/s  ]   Качают: 0  |  0 KB/s  ] 
 Полного источника не было 2 года 1 месяц 
Сообщения
 Добавлено: 2013-05-23 23:51
Аватара пользователя
Стаж: 7 лет 2 месяца
Сообщений: 7167
Спасибок: 82001
Лайков: 2438
Клин клином / Fire with Fire

«Revenge has its own set of rules.»

Изображение


Год выпуска: 2012
Страна: США
Жанр: боевик, триллер, драма, криминал
Продолжительность: 01:37:31
Перевод: Профессиональный (многоголосый закадровый) + Оригинальная звуковая дорожка
Субтитры: Английские

Режиссёр: Дэвид Баррет
В ролях: Джош Дюамель, Розарио Доусон, Брюс Уиллис, Винсент Д’Онофрио, Фифти Сент, Ричард Шифф, Винни Джонс, Джеймс Лежер, Куинтон Джексон, Эри Вервин
Описание: Главный герой — пожарный, попадающий в программу защиты свидетелей. Когда же человек, против которого он должен давать показания, угрожает ему, герой вынужден взять правосудие в свои руки, чтобы спасти любимую женщину.


Качество: BDRip 720p
Формат: MKV
Видео кодек: H264 (AVC)
Аудио кодек: AC3 (Dolby Digital), DTS
Видео: 1 280x538, 23.976 fps, 3 900 Kbps
Аудио #1: 48.0 KHz, 6 ch, 448 Kbps [Профессиональный (многоголосый закадровый)] Лицензия
Аудио #2: 48.0 KHz, 6 ch, 1 510 Kbps [Оригинальная звуковая дорожка]
Субтитры: Английские
Изображение
Скриншоты
Изображение

Изображение

Изображение

Изображение
Свернуть
Знаете ли Вы, что...
Когда Хэйган сражается с Джереми на складе, он поднимает револьвер, чтобы убить Джереми, и в этот момент слышно, как взводят курок, но затем, когда показывают пистолет, курок не взведен.
В конце фильма, когда лейтенант Селла и офицер Уэстлейк удаляют фотографии по делу Хэйгана, последнюю фотографию с мужчиной с бородой удаляют дважды. Сначала Уэстлейк это делает, а в следующем кадре — Селл.
Когда Бойд преследует Джереми, он стреляет семь раз из револьвера, который может выстрелить всего пять или шесть в зависимости от калибра.
Когда Талия дает урок стрельбы Джереми, интенсивность дождя заметно меняется после смены кадра.
На заправке, которая по сюжету должна быть в Лонг-Бич, есть знак «Лото Луизианы» рядом с дверью.
Салон Volkswagen Passat не соответствует оригинальному Passat B5 (который показывают в сцене после учебной стрельбы).
Во время начальных титров отображается рост Хэйгана (6 футов и 2 дюйма), тогда как по индикации на фоне четко видно, что он составляет 6 футов и 4,75 дюйма.
Свернуть
MI
General
Unique ID : 195077506589300646694203063583384591380 (0x92C28FA6FB0F00608DDD3867574CDC14)
Complete name : Клин клином.2012.mkv
Format : Matroska
Format version : Version 2
File size : 3.99 GiB
Duration : 1h 37mn
Overall bit rate : 5 858 Kbps
Movie name : IRONCLUB
Encoded date : UTC 2013-05-23 16:20:26
Writing application : mkvmerge v5.2.0 ('I can't explain') built on Dec 18 2011 18:12:03
Writing library : libebml v1.2.3 + libmatroska v1.3.0

Video
ID : 1
Format : AVC
Format/Info : Advanced Video Codec
Format profile : High@L4.1
Format settings, CABAC : Yes
Format settings, ReFrames : 12 frames
Codec ID : V_MPEG4/ISO/AVC
Duration : 1h 37mn
Bit rate : 3 900 Kbps
Width : 1 280 pixels
Height : 538 pixels
Display aspect ratio : 2.40:1
Frame rate : 23.976 fps
Color space : YUV
Chroma subsampling : 4:2:0
Bit depth : 8 bits
Scan type : Progressive
Bits/(Pixel*Frame) : 0.236
Stream size : 2.58 GiB (65%)
Title : Fire.with.Fire.2012.720p.BluRay.DTS.x264-EbP
Writing library : x264 core 128 r2216 198a7ea
Encoding settings : cabac=1 / ref=12 / deblock=1:-3:-3 / analyse=0x3:0x113 / me=tesa / subme=9 / psy=1 / psy_rd=1.05:0.00 / mixed_ref=1 / me_range=16 / chroma_me=1 / trellis=2 / 8x8dct=1 / cqm=0 / deadzone=21,11 / fast_pskip=0 / chroma_qp_offset=-2 / threads=12 / lookahead_threads=2 / sliced_threads=0 / nr=0 / decimate=0 / interlaced=0 / bluray_compat=0 / constrained_intra=0 / bframes=8 / b_pyramid=2 / b_adapt=2 / b_bias=0 / direct=3 / weightb=1 / open_gop=0 / weightp=2 / keyint=250 / keyint_min=23 / scenecut=40 / intra_refresh=0 / rc=2pass / mbtree=0 / bitrate=3900 / ratetol=1.0 / qcomp=0.60 / qpmin=0 / qpmax=69 / qpstep=4 / cplxblur=20.0 / qblur=0.5 / ip_ratio=1.40 / pb_ratio=1.30 / aq=1:0.60
Language : English
Default : Yes
Forced : Yes

Audio #1
ID : 2
Format : AC-3
Format/Info : Audio Coding 3
Mode extension : CM (complete main)
Format settings, Endianness : Big
Codec ID : A_AC3
Duration : 1h 37mn
Bit rate mode : Constant
Bit rate : 448 Kbps
Channel(s) : 6 channels
Channel positions : Front: L C R, Side: L R, LFE
Sampling rate : 48.0 KHz
Bit depth : 16 bits
Compression mode : Lossy
Stream size : 313 MiB (8%)
Title : DD 5.1 @ 448 kbps - MVO, R5
Language : Russian
Default : Yes
Forced : Yes

Audio #2
ID : 3
Format : DTS
Format/Info : Digital Theater Systems
Codec ID : A_DTS
Duration : 1h 37mn
Bit rate mode : Constant
Bit rate : 1 510 Kbps
Channel(s) : 6 channels
Channel positions : Front: L C R, Side: L R, LFE
Sampling rate : 48.0 KHz
Bit depth : 24 bits
Compression mode : Lossy
Stream size : 1.03 GiB (26%)
Title : DTS 5.1 @ 1536 kbps
Language : English
Default : No
Forced : No

Text #1
ID : 4
Format : UTF-8
Codec ID : S_TEXT/UTF8
Codec ID/Info : UTF-8 Plain Text
Language : English
Default : No
Forced : No

Text #2
ID : 5
Format : UTF-8
Codec ID : S_TEXT/UTF8
Codec ID/Info : UTF-8 Plain Text
Title : SDH
Language : English
Default : No
Forced : No

Menu
00:00:00.000 : en:00:00:00.000
00:03:36.091 : en:00:03:36.091
00:08:34.013 : en:00:08:34.013
00:16:14.765 : en:00:16:14.765
00:20:42.283 : en:00:20:42.283
00:26:58.242 : en:00:26:58.242
00:31:47.614 : en:00:31:47.614
00:38:16.419 : en:00:38:16.419
00:41:43.710 : en:00:41:43.710
00:45:02.783 : en:00:45:02.783
00:49:18.622 : en:00:49:18.622
00:56:32.180 : en:00:56:32.180
01:00:33.046 : en:01:00:33.046
01:05:14.119 : en:01:05:14.119
01:12:39.188 : en:01:12:39.188
01:23:30.339 : en:01:23:30.339


Свернуть
 rotametr нравится это.
Не в сети
Профиль  
 Добавлено: 2013-05-24 00:53 (спустя 1 час 1 минута)
Аватара пользователя
Стаж: 8 лет 2 месяца
Возраст: 30
Сообщений: 5
Брюс на постере, как картошка запеченная. Фильм на твердую 2.
Не в сети
Профиль  
Начать новую темуОтветить на тему  [ Сообщений: 2 ] 
Вы не можете начинать темы
Вы не можете отвечать на сообщения
Вы не можете редактировать свои сообщения
Вы не можете удалять свои сообщения