Правила форума

  • В этом разделе создание новых тем Запрещено.
  • Для создания новых тем пользуйтесь Корневым разделом DVD и HD фильмы.
Начать новую темуОтветить на тему  [ Сообщений: 5 ] 
Торрент файл
Размер: 8.9 GB • Зарегистрирован: 3 года 6 месяцев • Статус: Проверено
Скачан: 185 раз • Желающих скачать: 0 • Поблагодарили: 49 раз
 Раздают: 0  |  0 KB/s  ]   Качают: 0  |  0 KB/s  ] 
 Полного источника не было 11 месяцев 
Сообщения
 Добавлено: 2013-05-23 22:07
Аватара пользователя
Стаж: 9 лет 1 месяц
Сообщений: 8095
Спасибок: 122340
Лайков: 1196
Клин клином / Fire with Fire

«Revenge has its own set of rules.»

Изображение


Год выпуска: 2012
Страна: Изображение США
Жанр: боевик, триллер, драма, криминал
Продолжительность: 01:37:31
Субтитры: Английские
Перевод: Профессиональный (многоголосый, закадровый) [Лицензия]


Режиссер: Дэвид Баррет
Сценарий: Том О’Коннор, Лоуелл Коффил
Продюсер: Фифти Сент, Эндрю Дин, Рэндолл Эмметт
Оператор: Кристофер Пробст
Композитор: Тревор Моррис

В ролях: Джош Дюамель, Розарио Доусон, Брюс Уиллис, Винсент Д’Онофрио, Фифти Сент, Ричард Шифф, Винни Джонс, Джеймс Лежер, Куинтон Джексон, Эри Вервин

Описание: Главный герой — пожарный, попадающий в программу защиты свидетелей. Когда же человек, против которого он должен давать показания, угрожает ему, герой вынужден взять правосудие в свои руки, чтобы спасти любимую женщину.

Изображение Изображение

Раздача группы: Изображение

Качество: BDRip (1080p)
Формат: Matroska
Видео: MPEG-4 AVC, 11.1 мбит/с, 1920x808
Аудио №1: Русский (AC3, 48,0 КГц, 6 ch, 448 Кбит/c)
Аудио №2: Английский (DTS, 48,0 КГц, 6 ch, 1510 Кбит/c)

MediaInfo
Общее
Уникальный идентификатор : 171806653610043245117995796987666418622 (0x8140C204A3116A3E86A1534B4116CBBE)
Полное имя : C:\Фильмы\Klin.klinom.2012.BDRip.1080p.R.G.Daredevil.mkv
Формат : Matroska
Версия формата : Version 2
Размер файла : 8,90 Гбайт
Продолжительность : 1 ч. 37 м.
Общий поток : 13,1 Мбит/сек
Название фильма : "Muxed By Goliaf"
Дата кодирования : UTC 2013-05-23 18:46:56
Программа кодирования : mkvmerge v5.7.0 ('The Whirlwind') built on Jul 29 2012 15:12:35
Библиотека кодирования : libebml v1.2.3 + libmatroska v1.3.0

Видео
Идентификатор : 1
Формат : AVC
Формат/Информация : Advanced Video Codec
Профиль формата : High@L4.1
Параметр CABAC формата : Да
Параметр ReFrames формата : 5 кадров
Идентификатор кодека : V_MPEG4/ISO/AVC
Продолжительность : 1 ч. 37 м.
Битрейт : 11,1 Мбит/сек
Ширина : 1920 пикселей
Высота : 808 пикселей
Соотношение сторон : 2,40:1
Режим частоты кадров : Постоянный
Частота кадров : 23,976 кадра/сек
Цветовое пространство : YUV
Субдискретизация насыщенности : 4:2:0
Битовая глубина : 8 бит
Тип развёртки : Прогрессивная
Бит/(Пиксели*Кадры) : 0.298
Размер потока : 7,39 Гбайт (83%)
Заголовок : HDC
Библиотека кодирования : x264 core 128 r2216+688+33 06dac27 tMod+MixAQ [8-bit@4:2:0 X86_64]
Настройки программы : cabac=1 / ref=5 / deblock=1:-3:-3 / analyse=0x3:0x113 / me=umh / subme=11 / psy=1 / fade_compensate=0.00 / psy_rd=1.10:0.00 / mixed_ref=1 / me_range=32 / chroma_me=1 / trellis=2 / 8x8dct=1 / cqm=0 / deadzone=21,11 / fast_pskip=0 / chroma_qp_offset=-2 / threads=18 / lookahead_threads=3 / sliced_threads=0 / nr=0 / decimate=0 / interlaced=0 / bluray_compat=0 / constrained_intra=0 / fgo=0 / bframes=8 / b_pyramid=2 / b_adapt=2 / b_bias=0 / direct=3 / weightb=1 / open_gop=0 / weightp=2 / keyint=240 / keyint_min=24 / scenecut=40 / intra_refresh=0 / rc_lookahead=240 / rc=2pass / mbtree=1 / bitrate=11100 / ratetol=1.0 / qcomp=0.70 / qpmin=0 / qpmax=69 / qpstep=4 / cplxblur=20.0 / qblur=0.5 / ip_ratio=1.10 / aq=4 / aq-strength=0.85 / aq-sensitivity=10.00 / aq-ifactor=1.00 / aq-pfactor=1.00 / aq-bfactor=1.00 / aq2=0
Язык : English
Default : Да
Forced : Нет

Аудио #1
Идентификатор : 2
Формат : AC-3
Формат/Информация : Audio Coding 3
Расширение режима : CM (complete main)
Параметр Endianness формата : Big
Идентификатор кодека : A_AC3
Продолжительность : 1 ч. 37 м.
Вид битрейта : Постоянный
Битрейт : 448 Кбит/сек
Каналы : 6 каналов
Расположение каналов : Front: L C R, Side: L R, LFE
Частота : 48,0 КГц
Битовая глубина : 16 бит
Метод сжатия : С потерями
Размер потока : 313 Мбайт (3%)
Язык : Russian
Default : Да
Forced : Да

Аудио #2
Идентификатор : 3
Формат : DTS
Формат/Информация : Digital Theater Systems
Режим : 16
Параметр Endianness формата : Big
Идентификатор кодека : A_DTS
Продолжительность : 1 ч. 37 м.
Вид битрейта : Постоянный
Битрейт : 1509 Кбит/сек
Каналы : 6 каналов
Расположение каналов : Front: L C R, Side: L R, LFE
Частота : 48,0 КГц
Битовая глубина : 24 бит
Метод сжатия : С потерями
Размер потока : 1,03 Гбайт (12%)
Язык : English
Default : Нет
Forced : Нет

Текст
Идентификатор : 4
Формат : PGS
Режим смешивания : zlib
Идентификатор кодека : S_HDMV/PGS
Идентификатор кодека/Информация : The same subtitle format used on BDs/HD-DVDs
Язык : English
Default : Нет
Forced : Нет

Меню
00:00:00.000 : en:00:00:00.000
00:03:36.091 : en:00:03:36.091
00:08:34.013 : en:00:08:34.013
00:16:14.765 : en:00:16:14.765
00:20:42.283 : en:00:20:42.283
00:26:58.242 : en:00:26:58.242
00:31:47.614 : en:00:31:47.614
00:38:16.419 : en:00:38:16.419
00:41:43.710 : en:00:41:43.710
00:45:02.783 : en:00:45:02.783
00:49:18.622 : en:00:49:18.622
00:56:32.180 : en:00:56:32.180
01:00:33.046 : en:01:00:33.046
01:05:14.119 : en:01:05:14.119
01:12:39.188 : en:01:12:39.188
01:23:30.339 : en:01:23:30.339
Свернуть
Знаете ли вы, что...
Когда Хэйган сражается с Джереми на складе, он поднимает револьвер, чтобы убить Джереми, и в этот момент слышно, как взводят курок, но затем, когда показывают пистолет, курок не взведен.

В конце фильма, когда лейтенант Селла и офицер Уэстлейк удаляют фотографии по делу Хэйгана, последнюю фотографию с мужчиной с бородой удаляют дважды. Сначала Уэстлейк это делает, а в следующем кадре — Селл.

Когда Бойд преследует Джереми, он стреляет семь раз из револьвера, который может выстрелить всего пять или шесть в зависимости от калибра.

Когда Талия дает урок стрельбы Джереми, интенсивность дождя заметно меняется после смены кадра.

На заправке, которая по сюжету должна быть в Лонг-Бич, есть знак «Лото Луизианы» рядом с дверью.

Салон Volkswagen Passat не соответствует оригинальному Passat B5 (который показывают в сцене после учебной стрельбы).

Во время начальных титров отображается рост Хэйгана (6 футов и 2 дюйма), тогда как по индикации на фоне четко видно, что он составляет 6 футов и 4,75 дюйма.

Свернуть
Скриншоты
Изображение
Изображение
Изображение
Изображение
Свернуть
Не в сети
Профиль  
 Добавлено: 2013-05-24 20:39 (спустя 22 часа)
Аватара пользователя
Стаж: 8 лет
Сообщений: 1396
Спасибок: 39
Лайков: 65
krazz
:co_ol:
был бы жолтый - забрал бы, а так пойду 2-шку качну :ne_znayu:
Не в сети
Профиль  
 Добавлено: 2013-05-25 22:03 (спустя 1 день 1 час)
Аватара пользователя
Стаж: 8 лет 10 месяцев
Сообщений: 1170
Спасибок: 1294
Лайков: 7
ferguson
;;-))) не помню когда я последний раз смотрел на какие-либо объемы, за исключением двигателя или банки пива
качаю, коэшно
Не в сети
Профиль  
 Добавлено: 2013-05-29 18:49 (спустя 3 дня)
Аватара пользователя
Стаж: 9 лет 1 месяц
Возраст: 30
Сообщений: 235
печальное кинцо
Cкрытый текст
Х.з. нафига тут Виллис (мож он все бабло пропил, за зведной жизнью не слежу), с этой ролью справились бы и Дудикофф и Паре и тот же дракоша Вилсон. Бабенция страшнее только во второй халве и эпизодах рядом шарится. Огонь нарисован ваще атас, хотя бы "обратную тягу" шоль скопипастили. ИМХО фильмец могла протащить шуточка, если бы умершим напарником киллерца доктора Троя был д-р Макнамара :ps_ih: .
Свернуть
даже для тв3 печальное.
_________________
помни лик своего отца (с)S.K.
качаем только лицензионные диски, скажем нет пиратству (c)bor
08.01.12 Худший день. Спи спокойно, друг...
Не в сети
Профиль  
 Добавлено: 2013-06-05 23:23 (спустя 7 дней)
Аватара пользователя
Стаж: 8 лет
Сообщений: 1396
Спасибок: 39
Лайков: 65

Snork:

ferguson
;;-))) не помню когда я последний раз смотрел на какие-либо объемы, за исключением двигателя или банки пива
качаю, коэшно
ну да) када пъяный как свинья...и за рулем...наверно пох чё качать :-D
Не в сети
Профиль  
Начать новую темуОтветить на тему  [ Сообщений: 5 ] 
Вы не можете начинать темы
Вы не можете отвечать на сообщения
Вы не можете редактировать свои сообщения
Вы не можете удалять свои сообщения