Правила форума

  • В этом разделе создание новых тем Запрещено.
  • Для создания новых тем пользуйтесь Корневым разделом DVD и HD фильмы.
Начать новую темуОтветить на тему  [ 1 сообщение ] 
Торрент файл
Размер: 9.32 GB • Зарегистрирован: 5 лет 9 месяцев • Статус: Проверено
Скачан: 21 раз • Желающих скачать: 0 • Поблагодарили: 5 раз
 Раздают: 0  |  0 KB/s  ]   Качают: 0  |  0 KB/s  ] 
 Полного источника не было 1 год 
Сообщения
 Добавлено: 2011-03-09 19:58
Инквизитор
Аватара пользователя
Стаж: 8 лет 9 месяцев
Сообщений: 3753
Спасибок: 28361
Лайков: 9
Клуб «Завтрак» / Клуб выходного дня / The Breakfast Club

Изображение

Год выпуска: 1985
Страна: США (A&M Films / Channel Productions / Universal Pictures)
Слоган: «Они были чужими друг другу, пока не оказались в одно время и в одном месте»
Жанр: драма
Продолжительность: 01:37:04
Перевод:
Профессиональный (многоголосый закадровый) | СТС | + Профессиональный (многоголосый закадровый) + Оригинальная звуковая дорожка
Субтитры:
Русские, английские

Режиссёр: Джон Хьюз
Сценарист: Джон Хьюз
Продюсер: Джил Фризен, Джон Хьюз, Мишель Мэннинг, ...
Оператор: Томас Дель Рут
Композитор: Кит Форси
В ролях: Эмилио Эстевез, Энтони Майкл Холл, Джадд Нельсон, Молли Рингуолд, Элли Шиди, Пол Глисон, Джон Капелос, Рон Дин, Тим Гэмбл, Мерседес Холл

Описание: Пятеро школьников в наказание за проступки вынуждены приехать в школу в выходной день и написать сочинение «Кем вы себя представляете?» Молодым людям с большим трудом удается разобраться в своих проблемах…

Рейтинг MPAA: Рейтинг R (Детям до 17 лет обязательно присутствие родителей)
Изображение 8.109/10 (votes 6 523) Top: №217 
Изображение 7.9/10 (74 065 votes)

Раздача группы: Изображение
Качество: BDRip 1080p
Формат: MKV
Видео кодек: H264 (AVC)
Аудио кодек: AC3 (Dolby Digital) / DTS
Видео: x264, 1920x1040, 11.3 Mbps at 23.976 fps
Аудио №1: 48 kHz, AC3 5.1 @ 448 kbps |Многоголосный закадровый, СТС|
Аудио №2: 48 kHz, AC3 5.1 @ 448 kbps |Многоголосный закадровый|
Аудио №3: 48 kHz, DTS, 5.1 @ 1536 kbps |Оригинал|

M.I.

General
Complete name : T:\HD\Джон Хьюз\1985 - Клуб Завтрак (The Breakfast Club).1985.BDRip.1080p.-CHD.mkv
Format : Matroska
File size : 9.32 GiB
Duration : 1h 37mn
Overall bit rate : 13.7 Mbps
Encoded date : UTC 2011-01-23 19:13:11
Writing application : mkvmerge v4.4.0 ('Die Wiederkehr') сборка от Oct 31 2010 21:52:48
Writing library : libebml v1.0.0 + libmatroska v1.0.0
Video
ID : 1
Format : AVC
Format/Info : Advanced Video Codec
Format profile : High@L4.1
Format settings, CABAC : Yes
Format settings, ReFrames : 4 frames
Muxing mode : Container profile=Unknown@4.1
Codec ID : V_MPEG4/ISO/AVC
Duration : 1h 37mn
Bit rate : 11.3 Mbps
Width : 1 920 pixels
Height : 1 040 pixels
Display aspect ratio : 16:9
Frame rate : 23.976 fps
Color space : YUV
Chroma subsampling : 4:2:0
Bit depth : 8 bits
Scan type : Progressive
Bits/(Pixel*Frame) : 0.237
Stream size : 7.50 GiB (80%)
Title : The.Breakfast.Club.1985
Writing library : x264 core 102 r1666 d058f37
Encoding settings : cabac=1 / ref=4 / deblock=1:-3:-3 / analyse=0x3:0x113 / me=umh / subme=9 / psy=1 / psy_rd=1.00:0.00 / mixed_ref=1 / me_range=32 / chroma_me=1 / trellis=2 / 8x8dct=1 / cqm=2 / deadzone=21,11 / fast_pskip=0 / chroma_qp_offset=-1 / threads=12 / sliced_threads=0 / nr=0 / decimate=1 / interlaced=0 / constrained_intra=0 / bframes=4 / b_pyramid=2 / b_adapt=2 / b_bias=0 / direct=3 / weightb=1 / open_gop=0 / weightp=2 / keyint=250 / keyint_min=25 / scenecut=40 / intra_refresh=0 / rc_lookahead=50 / rc=2pass / mbtree=1 / bitrate=11333 / ratetol=1.0 / qcomp=0.60 / qpmin=10 / qpmax=51 / qpstep=4 / cplxblur=20.0 / qblur=0.5 / vbv_maxrate=50000 / vbv_bufsize=50000 / ip_ratio=1.40 / aq=1:0.80 / nal_hrd=none
Language : English
Audio #1
ID : 2
Format : AC-3
Format/Info : Audio Coding 3
Mode extension : CM (complete main)
Codec ID : A_AC3
Duration : 1h 37mn
Bit rate mode : Constant
Bit rate : 448 Kbps
Channel(s) : 6 channels
Channel positions : Front: L C R, Side: L R, LFE
Sampling rate : 48.0 KHz
Bit depth : 16 bits
Stream size : 311 MiB (3%)
Title : AC3 5.1 @ 448 kbps |Многоголосный закадровый, СТС|
Language : Russian
Audio #2
ID : 3
Format : AC-3
Format/Info : Audio Coding 3
Mode extension : CM (complete main)
Codec ID : A_AC3
Duration : 1h 37mn
Bit rate mode : Constant
Bit rate : 448 Kbps
Channel(s) : 6 channels
Channel positions : Front: L C R, Side: L R, LFE
Sampling rate : 48.0 KHz
Bit depth : 16 bits
Stream size : 311 MiB (3%)
Title : AC3 5.1 @ 448 kbps |Многоголосный закадровый|
Language : Russian
Audio #3
ID : 4
Format : DTS
Format/Info : Digital Theater Systems
Codec ID : A_DTS
Duration : 1h 37mn
Bit rate mode : Constant
Bit rate : 1 510 Kbps
Channel(s) : 6 channels
Channel positions : Front: L C R, Side: L R, LFE
Sampling rate : 48.0 KHz
Bit depth : 24 bits
Stream size : 1.02 GiB (11%)
Title : DTS 5.1 @ 1536 kbps |Оригинал|
Language : English
Text #1
ID : 5
Format : UTF-8
Codec ID : S_TEXT/UTF8
Codec ID/Info : UTF-8 Plain Text
Language : Russian
Text #2
ID : 6
Format : UTF-8
Codec ID : S_TEXT/UTF8
Codec ID/Info : UTF-8 Plain Text
Language : English
Свернуть

Скриншоты
Изображение

Изображение

Изображение
Свернуть
Не в сети
Профиль  
Начать новую темуОтветить на тему  [ 1 сообщение ] 
Вы не можете начинать темы
Вы не можете отвечать на сообщения
Вы не можете редактировать свои сообщения
Вы не можете удалять свои сообщения