Правила форума

  • В этом разделе создание новых тем Запрещено.
  • Для создания новых тем пользуйтесь Корневым разделом DVD и HD фильмы.
Начать новую темуОтветить на тему  [ Сообщений: 2 ] 
Торрент файл
Размер: 14.5 GB • Зарегистрирован: 4 года 7 месяцев • Статус: Проверено
Скачан: 58 раз • Желающих скачать: 0 • Поблагодарили: 17 раз
 Раздают: 0  |  0 KB/s  ]   Качают: 0  |  0 KB/s  ] 
 Полного источника не было 2 часа 8 минут 
Сообщения
 Добавлено: 2012-05-03 14:21
Руководитель релиз-группы
Аватара пользователя
Стаж: 7 лет 5 месяцев
Возраст: 31
Сообщений: 3406
Спасибок: 46729
Лайков: 5
Изображение

Клятва
The Vow


Год выпуска: 2012
Страна: США, Германия, Франция, Бразилия, Великобритания, Австралия
Жанр: драма, мелодрама
Продолжительность: 01:43:54
Перевод: Профессиональный (полное дублирование)
Режиссер: Майкл Сакси
Сценарий: Джейсон Катимс, Эбби Кон, Марк Силверштейн
Продюсер: Гари Барбер, Роджер Бернбаум, Джонатан Гликман
Оператор: Рохир Стофферс
Композитор: Майкл Брук, Рэйчел Портман
В ролях: Рэйчел МакАдамс, Ченнинг Татум, Сэм Нил, Скотт Спидман, Джессика Лэнг, Джессика МакНэми, Венди Крюсон, Татьяна Маслани, Лукас Брайант, Джои Клейн
Бюджет: $30 000 000
Сборы в США: $124 808 533
Сборы в России: $2 839 641
Сборы в мире: $182 007 533
Описание: Во время медового месяца Пейдж и Лео попадают в автокатастрофу. Пока жена находится в коме, Лео не отходит от ее кровати ни на час, но возвращение девушки к жизни омрачено потерей памяти - она не узнает любимого и не помнит об их романе. И тогда Лео решает заново завоевать сердце Пейдж.
Изображение
MPAA: Изображение
Мировая премьера: 9 февраля 2012
Релиз на DVD: 3 апреля 2012, «Columbia/Sony»
Релиз на Blu-ray: 26 июня 2012, «Columbia/Sony»
Релиз: Изображение Раздача группы: Изображение
Качество: BDRip, 1080p [исходник: Blu-Ray CEE (1080p)]
Формат: Matroska
Видео: AVC; 1920x800 (2.40:1); 18303 Kbps; 23,976 fps; 0,497 bit/pixel
Аудио №1: AC3; 640 Kbps; CBR; 6 ch Russian
Аудио №2: AC3; 640 Kbps; CBR; 6 ch English
Субтитры: русские, английские
Сохранены оригинальные чаптеры как на Blu-ray
Изображение
mediainfo
Формат : Matroska
Версия формата : Version 2
Размер файла : 14,5 Гбайт
Продолжительность : 1 ч. 43 м.
Режим общего битрейта : Переменный
Общий поток : 20,0 Мбит/сек
Название фильма : by Askboy
Дата кодирования : UTC 2012-05-03 08:10:08
Программа кодирования : mkvmerge v3.2.0 ('Beginnings') built on Feb 12 2010 16:46:17
Библиотека кодирования : libebml v0.7.9 + libmatroska v0.8.1

Видео
Идентификатор : 1
Формат : AVC
Формат/Информация : Advanced Video Codec
Профиль формата : High@L4.1
Параметр CABAC формата : Да
Параметр ReFrames формата : 3 кадра
Идентификатор кодека : V_MPEG4/ISO/AVC
Продолжительность : 1 ч. 43 м.
Вид битрейта : Переменный
Битрейт : 18,7 Мбит/сек
Максимальный битрейт : 40,0 Мбит/сек
Ширина : 1920 пикселей
Высота : 800 пикселей
Соотношение сторон : 2,40:1
Частота кадров : 23,976 кадра/сек
Цветовое пространство : YUV
Субдискретизация насыщенности : 4:2:0
Битовая глубина : 8 бит
Тип развёртки : Прогрессивная
Бит/(Пиксели*Кадры) : 0.508
Размер потока : 13,3 Гбайт (92%)
Библиотека кодирования : x264 core 116 r2074 2641b9e
Настройки программы : cabac=1 / ref=4 / deblock=1:-3:-3 / analyse=0x3:0x133 / me=umh / subme=9 / psy=1 / psy_rd=1.00:0.00 / mixed_ref=1 / me_range=32 / chroma_me=1 / trellis=2 / 8x8dct=1 / cqm=0 / deadzone=21,11 / fast_pskip=0 / chroma_qp_offset=-2 / threads=12 / sliced_threads=0 / slices=4 / nr=0 / decimate=1 / interlaced=0 / bluray_compat=0 / constrained_intra=0 / bframes=3 / b_pyramid=1 / b_adapt=1 / b_bias=0 / direct=3 / weightb=1 / open_gop=0 / weightp=0 / keyint=24 / keyint_min=2 / scenecut=40 / intra_refresh=0 / rc_lookahead=24 / rc=2pass / mbtree=0 / bitrate=18699 / ratetol=1.0 / qcomp=0.60 / qpmin=10 / qpmax=51 / qpstep=4 / cplxblur=20.0 / qblur=0.5 / vbv_maxrate=40000 / vbv_bufsize=30000 / nal_hrd=vbr / ip_ratio=1.40 / pb_ratio=1.30 / aq=1:1.00
Язык : English

Аудио #1
Идентификатор : 2
Формат : AC-3
Формат/Информация : Audio Coding 3
Расширение режима : CM (complete main)
Идентификатор кодека : A_AC3
Продолжительность : 1 ч. 43 м.
Вид битрейта : Постоянный
Битрейт : 640 Кбит/сек
Каналы : 6 каналов
Расположение каналов : Front: L C R, Side: L R, LFE
Частота : 48,0 КГц
Битовая глубина : 16 бит
Метод сжатия : С потерями
Размер потока : 476 Мбайт (3%)
Язык : Russian

Аудио #2
Идентификатор : 3
Формат : AC-3
Формат/Информация : Audio Coding 3
Расширение режима : CM (complete main)
Идентификатор кодека : A_AC3
Продолжительность : 1 ч. 43 м.
Вид битрейта : Постоянный
Битрейт : 640 Кбит/сек
Каналы : 6 каналов
Расположение каналов : Front: L C R, Side: L R, LFE
Частота : 48,0 КГц
Битовая глубина : 16 бит
Метод сжатия : С потерями
Размер потока : 476 Мбайт (3%)
Язык : English

Текст #1
Идентификатор : 4
Формат : UTF-8
Идентификатор кодека : S_TEXT/UTF8
Идентификатор кодека/Информация : UTF-8 Plain Text
Язык : Russian

Текст #2
Идентификатор : 5
Формат : UTF-8
Идентификатор кодека : S_TEXT/UTF8
Идентификатор кодека/Информация : UTF-8 Plain Text
Язык : English

Меню
00:00:00.000 : en:Chapter 1
00:05:52.226 : en:Chapter 2
00:12:29.373 : en:Chapter 3
00:19:11.692 : en:Chapter 4
00:24:05.068 : en:Chapter 5
00:30:17.607 : en:Chapter 6
00:35:57.613 : en:Chapter 7
00:40:13.786 : en:Chapter 8
00:46:33.832 : en:Chapter 9
00:52:19.761 : en:Chapter 10
00:59:32.568 : en:Chapter 11
01:05:19.415 : en:Chapter 12
01:11:59.815 : en:Chapter 13
01:20:39.501 : en:Chapter 14
01:29:02.962 : en:Chapter 15
01:34:14.774 : en:Chapter 16

Свернуть
Скриншоты

Изображение
Изображение
Изображение
Изображение
Изображение
Изображение
Изображение
Изображение
Изображение
Изображение
Свернуть
Не в сети
Профиль  
 Добавлено: 2012-10-28 09:52 (спустя 5 месяцев 24 дня)
Стаж: 7 лет 7 месяцев
Сообщений: 13
Поддайте жару пожалуйста, качаю уже неделю..
Не в сети
Профиль  
Начать новую темуОтветить на тему  [ Сообщений: 2 ] 
Вы не можете начинать темы
Вы не можете отвечать на сообщения
Вы не можете редактировать свои сообщения
Вы не можете удалять свои сообщения