Правила форума

  • В этом разделе создание новых тем Запрещено.
  • Для создания новых тем пользуйтесь Корневым разделом DVD и HD фильмы.
Начать новую темуОтветить на тему  [ Сообщений: 2 ] 
Торрент файл
Размер: 8.2 GB • Зарегистрирован: 4 года 7 месяцев • Статус: Проверено
Скачан: 117 раз • Желающих скачать: 0 • Поблагодарили: 14 раз
 Раздают: 0  |  0 KB/s  ]   Качают: 0  |  0 KB/s  ] 
 Полного источника не было 1 год 10 месяцев 
Сообщения
 Добавлено: 2012-04-21 13:13
Модератор релиз-группы
Аватара пользователя
Стаж: 9 лет 1 месяц
Возраст: 97
Сообщений: 11660
Спасибок: 6533
Лайков: 269
Клятва / The Vow

Изображение

Год выпуска: 2012
Страна: США, Германия, Франция, Бразилия, Великобритания, Австралия
Жанр: драма, мелодрама
Продолжительность: 01:43:54
Перевод: Профессиональный (полное дублирование)
Дублёры: Ирина Горячева, Андрей Кузнецов, Юрий Лазарев, Андрей Лёвин, Галина Чигинская
Режиссер: Майкл Сакси
Сценарий: Джейсон Катимс, Эбби Кон, Марк Силверштейн, Стюарт Сендер
Продюсер: Гари Барбер, Роджер Бернбаум, Джонатан Гликман, Пол Тоблиб, Сьюзэн Купер
Оператор: Рохир Стофферс
Композитор: Майкл Брук, Рэйчел Портман

В ролях: Рэйчел МакАдамс (Paige), Ченнинг Татум (Leo), Сэм Нил (Bill Thornton), Скотт Спидман (Jeremy), Джессика Лэнг (Rita Thornton), Джессика МакНэми (Gwen), Венди Крюсон (Dr. Fishman), Татьяна Маслани (Lily), Лукас Брайант (Kyle), Джои Клейн (Josh), Джо Кобден (Jim), Джинэнн Гуссен (Sonia)

Описание: Во время медового месяца Пейдж и Лео попадают в автокатастрофу. Пока жена находится в коме, Лео не отходит от ее кровати ни на час, но возвращение девушки к жизни омрачено потерей памяти - она не узнает любимого и не помнит об их романе. И тогда Лео решает заново завоевать сердце Пейдж.
Изображение
Качество: BDRip (1080p)
Видео: MPEG-4 AVC, 9016 Кбит/с, 1920x800, 23.976 кадр/с
Аудио: Русский AC3, 6 ch, 384 Кбит/с
Аудио: Украинский AC3, 6 ch, 384 Кбит/с
Аудио: Английский DTS, 6 ch, 1510 Кбит/с
Субтитры: Русские, английские
скриншоты
Изображение

Изображение

Изображение

Изображение
Свернуть
Mi
Format : Matroska
Format version : Version 2
File size : 8.20 GiB
Duration : 1h 43mn
Overall bit rate : 11.3 Mbps
Movie name : --SCHUMAHER--
Encoded date : UTC 2012-04-20 13:53:47
Writing application : mkvmerge v5.5.0 ('Healer') built on Apr 6 2012 21:43:24
Writing library : libebml v1.2.3 + libmatroska v1.3.0

Video
ID : 1
Format : AVC
Format/Info : Advanced Video Codec
Format profile : High@L4.1
Format settings, CABAC : Yes
Format settings, ReFrames : 5 frames
Codec ID : V_MPEG4/ISO/AVC
Duration : 1h 43mn
Bit rate : 9 016 Kbps
Width : 1 920 pixels
Height : 800 pixels
Display aspect ratio : 2.40:1
Frame rate : 23.976 fps
Color space : YUV
Chroma subsampling : 4:2:0
Bit depth : 8 bits
Scan type : Progressive
Bits/(Pixel*Frame) : 0.245
Stream size : 6.38 GiB (78%)
Writing library : x264 core 122 r2184 5c85e0a
Encoding settings : cabac=1 / ref=5 / deblock=1:0:0 / analyse=0x3:0x133 / me=umh / subme=8 / psy=1 / psy_rd=1.00:0.00 / mixed_ref=1 / me_range=16 / chroma_me=1 / trellis=1 / 8x8dct=1 / cqm=0 / deadzone=21,11 / fast_pskip=1 / chroma_qp_offset=-2 / threads=24 / sliced_threads=0 / nr=0 / decimate=1 / interlaced=0 / bluray_compat=0 / constrained_intra=0 / bframes=3 / b_pyramid=2 / b_adapt=1 / b_bias=0 / direct=1 / weightb=1 / open_gop=0 / weightp=2 / keyint=250 / keyint_min=23 / scenecut=40 / intra_refresh=0 / rc=2pass / mbtree=0 / bitrate=9016 / ratetol=1.0 / qcomp=0.60 / qpmin=0 / qpmax=69 / qpstep=4 / cplxblur=20.0 / qblur=0.5 / ip_ratio=1.40 / pb_ratio=1.30 / aq=1:1.00
Language : English
Default : Yes
Forced : Yes

Audio #1
ID : 2
Format : AC-3
Format/Info : Audio Coding 3
Mode extension : CM (complete main)
Codec ID : A_AC3
Duration : 1h 43mn
Bit rate mode : Constant
Bit rate : 384 Kbps
Channel(s) : 6 channels
Channel positions : Front: L C R, Side: L R, LFE
Sampling rate : 48.0 KHz
Bit depth : 16 bits
Compression mode : Lossy
Stream size : 285 MiB (3%)
Language : Russian
Default : Yes
Forced : Yes

Audio #2
ID : 3
Format : AC-3
Format/Info : Audio Coding 3
Mode extension : CM (complete main)
Codec ID : A_AC3
Duration : 1h 43mn
Bit rate mode : Constant
Bit rate : 384 Kbps
Channel(s) : 6 channels
Channel positions : Front: L C R, Side: L R, LFE
Sampling rate : 48.0 KHz
Bit depth : 16 bits
Compression mode : Lossy
Stream size : 285 MiB (3%)
Language : Ukrainian
Default : No
Forced : No

Audio #3
ID : 4
Format : DTS
Format/Info : Digital Theater Systems
Codec ID : A_DTS
Duration : 1h 43mn
Bit rate mode : Constant
Bit rate : 1 510 Kbps
Channel(s) : 6 channels
Channel positions : Front: L C R, Side: L R, LFE
Sampling rate : 48.0 KHz
Bit depth : 24 bits
Compression mode : Lossy
Stream size : 1.10 GiB (13%)
Language : English
Default : No
Forced : No

Text #1
ID : 5
Format : UTF-8
Codec ID : S_TEXT/UTF8
Codec ID/Info : UTF-8 Plain Text
Language : Russian
Default : No
Forced : No

Text #2
ID : 6
Format : UTF-8
Codec ID : S_TEXT/UTF8
Codec ID/Info : UTF-8 Plain Text
Language : English
Default : No
Forced : No

Text #3
ID : 7
Format : UTF-8
Codec ID : S_TEXT/UTF8
Codec ID/Info : UTF-8 Plain Text
Title : SDH
Language : English
Default : No
Forced : No

Свернуть
_________________
Изображение
Не в сети
Профиль  
 Добавлено: 2012-04-22 09:59 (спустя 20 часов)
Аватара пользователя
Стаж: 7 лет 6 месяцев
Возраст: 51
Сообщений: 1782
Лайков: 1403
Фильм хороший. Рейчел МакАдамс, как всегда, убийственно прекрасна, обожаю ее, а Татум, актер-так-себе вдруг проявляется как актер хороший. Это мелодрама, слезогонка. С непростым, вязким сюжетом. Все очень нелегко, и нужно проделать немалую душевную работу, чтобы пройти вместе с героями фильма весь путь их "по лезвию бритвы", Смотреть стоит. Надеюсь, к концу фильма вы получите такие же светлые впечатления, как и я.

И все таки, добавочно, хочу выделить Татума. По-моему, на настоящий момент это лучший его фильм. Он становится настоящим, сложным актером. И сие отрадно есть.

Смотреть.
Не в сети
Профиль  
Начать новую темуОтветить на тему  [ Сообщений: 2 ] 
Вы не можете начинать темы
Вы не можете отвечать на сообщения
Вы не можете редактировать свои сообщения
Вы не можете удалять свои сообщения