Правила форума

  • В этом разделе создание новых тем Запрещено.
  • Для создания новых тем пользуйтесь Корневым разделом DVD и HD фильмы.
Начать новую темуОтветить на тему  [ Сообщений: 3 ] 
Торрент файл
Размер: 15.98 GB • Зарегистрирован: 4 года 1 месяц • Статус: Проверено
Скачан: 143 раза • Желающих скачать: 0 • Поблагодарили: 58 раз
 Раздают: 0  |  0 KB/s  ]   Качают: 0  |  0 KB/s  ] 
 Полного источника не было 3 часа 
Сообщения
 Добавлено: 2012-10-19 09:43
Top-releaser
Аватара пользователя
Стаж: 6 лет 7 месяцев
Сообщений: 2078
Спасибок: 3229
Лайков: 9
Изображение

Код Да Винчи
The Da Vinci Code


Год выпуска: 2006
Страна: США
Слоган: «So Dark The Con of Man»
Жанр: триллер, детектив
Продолжительность: 02:54:37
Перевод: Профессиональный (полное дублирование)
Режиссер: Рон Ховард
Сценарий: Акива Голдсман, Дэн Браун
Продюсер: Джон Калли, Брайан Грейзер, Рон Ховард, Дэн Браун, Тодд Халлоуэлл
Оператор: Сальваторе Тотино
Композитор: Ханс Циммер
В ролях: Том Хэнкс, Одри Тоту, Иэн МакКеллен, Жан Рено, Пол Беттани, Альфред Молина, Юрген Прохнов, Жан-Ив Бертелут, Этьен Шико, Жан-Пьер Марьель, Мари-Франсуа Одоллент, Рита Дейвис
Бюджет: $125 000 000
Сборы в США: $217 536 138
Сборы в России: $13 283 667
Сборы в мире: $758 239 851
Мировая премьера: 17 мая 2006
Релиз на DVD: 5 августа 2010, «Columbia/Sony»
Релиз на Blu-ray: 14 мая 2009, «Columbia/Sony»
Описание: Гарвардского профессора Роберта Лэнгдона подозревают в чудовищном преступлении, которого он не совершал. Лэнгдон знакомится с криптографом парижской полиции Софи Невё и вместе с ней пытается раскрыть тайну, которая может подорвать могущество католической церкви.
Роберт и Софи должны это сделать до того, как их схватят блюстители закона или остановят противники, готовые на все ради сохранения великого религиозного секрета.

Раздача группы: Изображение
Изображение User Rating: 7.290 (48 040)
Изображение User Rating: 6.40 (179 793)
MPAA: PG-13 - Детям до 13 лет просмотр не желателен
Качество: BDRip, 1080p
Формат: Matroska
Видео: AVC; 1920x800 (2.40:1); 9742 Kbps; 23,976 fps; 0,265 bit/pixel
Аудио №1: Russian; AC3; 384 Kbps; CBR; 6 ch - Многоголоска
Аудио №2: Russian; DTS; 1509 Kbps; CBR; 6 ch; 24 bit - Пётр Гланц и Инна Королёва
Аудио №3: Russian; DTS; 754 Kbps; CBR; 6 ch; 24 bit - Владимир Королёв
Аудио №4: English; AC3; 448 Kbps; CBR; 6 ch - Core TrueHD
Субтитры: Russian, English

MediaInfo
Общее
Уникальный идентификатор : 232337337349522616712707613956875684552 (0xAECA8B2421858DAF96031A891ACF0AC8)
Полное имя : Z:\WWW\TR-Downloads\The.Da.Vinci.Code.1080p.[R.G.Daredevil].mkv
Формат : Matroska
Версия формата : Version 2
Размер файла : 16,0 Гбайт
Продолжительность : 2 ч. 54 м.
Общий поток : 13,1 Мбит/сек
Название фильма : The.Da.Vinci.Code.EC.2006.1080p.BDRip.x264-palach
Дата кодирования : UTC 2009-05-16 06:46:09
Программа кодирования : mkvmerge v2.8.0 ('The Tree') built on May 9 2009 18:02:06
Библиотека кодирования : libebml v0.7.7 + libmatroska v0.8.1

Видео
Идентификатор : 1
Формат : AVC
Формат/Информация : Advanced Video Codec
Профиль формата : High@L4.1
Параметр CABAC формата : Да
Параметр ReFrames формата : 4 кадра
Идентификатор кодека : V_MPEG4/ISO/AVC
Продолжительность : 2 ч. 54 м.
Битрейт : 10000 Кбит/сек
Ширина : 1920 пикселей
Высота : 800 пикселей
Соотношение сторон : 2,40:1
Частота кадров : 23,976 кадра/сек
Цветовое пространство : YUV
Субдискретизация насыщенности : 4:2:0
Битовая глубина : 8 бит
Тип развёртки : Прогрессивная
Бит/(Пиксели*Кадры) : 0.272
Размер потока : 11,9 Гбайт (74%)
Заголовок : The.Da.Vinci.Code.EC.2006.1080p.BDRip.x264-HDv0T
Библиотека кодирования : x264 core 67 r1145M d2e1e1c
Настройки программы : cabac=1 / ref=4 / deblock=1:-3:-3 / analyse=0x3:0x113 / me=umh / subme=9 / psy_rd=0.7:0.0 / mixed_ref=1 / me_range=24 / chroma_me=1 / trellis=0 / 8x8dct=1 / cqm=0 / deadzone=4,4 / chroma_qp_offset=-4 / threads=3 / nr=0 / decimate=1 / mbaff=0 / bframes=3 / b_pyramid=1 / b_adapt=2 / b_bias=0 / direct=3 / wpredb=1 / keyint=250 / keyint_min=25 / scenecut=40 / rc=2pass / bitrate=10000 / ratetol=1.0 / qcomp=0.60 / qpmin=10 / qpmax=51 / qpstep=4 / cplxblur=20.0 / qblur=0.5 / vbv_maxrate=38000 / vbv_bufsize=38000 / ip_ratio=1.40 / pb_ratio=1.30 / aq=1:0.60
Язык : English
Default : Да
Forced : Нет

Аудио #1
Идентификатор : 2
Формат : AC-3
Формат/Информация : Audio Coding 3
Расширение режима : CM (complete main)
Параметр Endianness формата : Big
Идентификатор кодека : A_AC3
Продолжительность : 2 ч. 54 м.
Вид битрейта : Постоянный
Битрейт : 384 Кбит/сек
Каналы : 6 каналов
Расположение каналов : Front: L C R, Side: L R, LFE
Частота : 48,0 КГц
Битовая глубина : 16 бит
Метод сжатия : С потерями
Размер потока : 480 Мбайт (3%)
Заголовок : MVO AC3 6ch 384kbps [Kinomania]
Язык : Russian
Default : Да
Forced : Нет

Аудио #2
Идентификатор : 3
Формат : DTS
Формат/Информация : Digital Theater Systems
Идентификатор кодека : A_DTS
Продолжительность : 2 ч. 54 м.
Вид битрейта : Постоянный
Битрейт : 1510 Кбит/сек
Каналы : 6 каналов
Расположение каналов : Front: L C R, Side: L R, LFE
Частота : 48,0 КГц
Битовая глубина : 24 бит
Метод сжатия : С потерями
Размер потока : 1,84 Гбайт (12%)
Заголовок : AVO DTS 6ch 1536kbps [Glanz & Koroleva]
Язык : Russian
Default : Нет
Forced : Нет

Аудио #3
Идентификатор : 4
Формат : DTS
Формат/Информация : Digital Theater Systems
Идентификатор кодека : A_DTS
Продолжительность : 2 ч. 54 м.
Вид битрейта : Постоянный
Битрейт : 755 Кбит/сек
Каналы : 6 каналов
Расположение каналов : Front: L C R, Side: L R, LFE
Частота : 48,0 КГц
Битовая глубина : 24 бит
Метод сжатия : С потерями
Размер потока : 942 Мбайт (6%)
Заголовок : AVO DTS 6ch 768kbps [Korolev]
Язык : Russian
Default : Нет
Forced : Нет

Аудио #4
Идентификатор : 5
Формат : AC-3
Формат/Информация : Audio Coding 3
Расширение режима : CM (complete main)
Параметр Endianness формата : Big
Идентификатор кодека : A_AC3
Продолжительность : 2 ч. 54 м.
Вид битрейта : Постоянный
Битрейт : 448 Кбит/сек
Каналы : 6 каналов
Расположение каналов : Front: L C R, Side: L R, LFE
Частота : 48,0 КГц
Битовая глубина : 16 бит
Метод сжатия : С потерями
Размер потока : 560 Мбайт (3%)
Заголовок : AC3 6ch 448kbps [Core TrueHD]
Язык : English
Default : Нет
Forced : Нет

Текст #1
Идентификатор : 6
Формат : UTF-8
Идентификатор кодека : S_TEXT/UTF8
Идентификатор кодека/Информация : UTF-8 Plain Text
Язык : Russian
Default : Нет
Forced : Нет

Текст #2
Идентификатор : 7
Формат : UTF-8
Идентификатор кодека : S_TEXT/UTF8
Идентификатор кодека/Информация : UTF-8 Plain Text
Заголовок : [Kinomania]
Язык : Russian
Default : Нет
Forced : Нет

Текст #3
Идентификатор : 8
Формат : UTF-8
Идентификатор кодека : S_TEXT/UTF8
Идентификатор кодека/Информация : UTF-8 Plain Text
Язык : English
Default : Нет
Forced : Нет
Свернуть
"Знаете ли Вы, что..."
  • Официальные представители Вестминстерского аббатства отказались дать разрешение на проведение съемок внутри архитектурного сооружения, выразив таким образом несогласие с описанными в произведении Дэна Брауна фактами. После недолгих споров было решено, что съемки данной сцены пройдут в Кафедральном Соборе имени Линкольна.
  • Французское министерство культуры оказалось на порядок сговорчивее. Таким образом, съемочная группа легко получила право на проведение съемок внутри знаменитого Лувра.
  • На роль Роберта Лэнгдона претендовал Рассел Кроу, но досталась она Тому Хэнксу.
  • На роль Софи Невё рассматривались кандидатуры Джулии Делпи и Кейт Бекинсейл. После их отказа на пробах засветились Софи Марсо, Одри Тоту, Вирджиния Ледуайен, Джудит Годрече и Линда Харди. Вопреки всем прогнозам роль досталась француженке Одри Тоту.
  • Создатель сериала «24» Джоэл Сёрноу предположил, что сюжет книги «Код да Винчи» стал бы неплохим подспорьем для создания третьего сезона телесериала. Джоэл обсудил данный вопрос со своим боссом, продюсером Брайаном Грейзером, после чего состоялась беседа с автором книги Дэном Брауном насчет приобретения прав. Однако Дэн не испытывал ни малейшего желания превращать свою книгу-шедевр в очередное телемыло.
  • Однако Брайан все равно не остался вне проекта. Несколько месяцев спустя, кинокомпания Sony Pictures выкупила права на экранизацию книги за 6 миллионов долларов и наняла Грейзера продюсером.
  • В качестве композитора первоначально было решено привлечь знаменитого Джеймса Хорнера, т. к. Джеймс хорошо знаком с Роном Ховардом, и за плечами у данного тандема несколько совместных работ. Однако Хорнер предпочел поработать над саундтреком к картине «Новый мир». Тогда в проект и пришел Ханс Зиммер. Интересно, что Хансу предлагали поработать над тем же «Новым миром», но в связи с плотным графиком он не смог принять данное предложение.
  • Первоначально герой Йена МакКеллена должен был опираться на специальную табуреточку. Именно её мы можем видеть в трейлере. Но потом она была заменена на костыли, видимо, чтобы актёр мог быстрее передвигаться в кадре.
  • В Белоруссии фильм был снят с проката на третий день под влиянием церкви.
  • Фильм запретили в Египте и соседней Иордании, заявив, что он «порочит имя христианских и исламских персонажей и противоречит истине об Иисусе, о которой свидетельствуют Библия и Коран».
Свернуть
Скриншоты

Изображение
Изображение
Изображение
Изображение
Изображение
Свернуть
 aleha1012 нравится это.
Не в сети
Профиль  
 Добавлено: 2013-06-24 21:44 (спустя 8 месяцев)
Стаж: 5 лет 11 месяцев
Сообщений: 2
Перевод: Профессиональный (полное дублирование)
Аудио №1: Russian; AC3; 384 Kbps; CBR; 6 ch - Многоголоска
Аудио №2: Russian; DTS; 1509 Kbps; CBR; 6 ch; 24 bit - Пётр Гланц и Инна Королёва
Аудио №3: Russian; DTS; 754 Kbps; CBR; 6 ch; 24 bit - Владимир Королёв
Аудио №4: English; AC3; 448 Kbps; CBR; 6 ch - Core TrueHD
где дубляж???????????????
Не в сети
Профиль  
 Добавлено: 2014-08-05 18:22 (спустя 1 год 1 месяц)
Аватара пользователя
Стаж: 8 лет 1 месяц
Возраст: 26
Сообщений: 132
Лайков: 1
:ry_car: :ry_car: :ry_car: НАРОД, ВСТАНЬТЕ ПОЖАЛУЙСТА НА РАЗДАЧУ :ry_car: :ry_car: :ry_car:
Не в сети
Профиль  
Начать новую темуОтветить на тему  [ Сообщений: 3 ] 
Вы не можете начинать темы
Вы не можете отвечать на сообщения
Вы не можете редактировать свои сообщения
Вы не можете удалять свои сообщения
cron