Правила форума

  • В этом разделе создание новых тем Запрещено.
  • Для создания новых тем пользуйтесь Корневым разделом DVD и HD фильмы.
Начать новую темуОтветить на тему  [ Сообщений: 4 ] 
Торрент файл
Размер: 9.13 GB • Зарегистрирован: 4 года 6 месяцев • Статус: Проверено
Скачан: 103 раза • Желающих скачать: 0 • Поблагодарили: 24 раза
 Раздают: 0  |  0 KB/s  ]   Качают: 0  |  0 KB/s  ] 
 Полного источника не было 11 дней 
Сообщения
 Добавлено: 2012-06-06 23:11
Модератор
Аватара пользователя
Стаж: 6 лет 10 месяцев
Возраст: 33
Сообщений: 5908
Спасибок: 61265
Лайков: 3540
Изображение

Код доступа «Кейптаун» / Safe House


Год выпуска: 2012
Страна: США, ЮАР
Слоган: «No One Is Safe»
Жанр: боевик, триллер, криминал, детектив
Продолжительность: 01:54:54
Перевод: Профессиональный (полное дублирование) Лицензия
Режиссер: Дэниэл Эспиноза
Сценарий: Дэвид Гуггенхейм
Продюсер: Скотт Стубер, Скотт Аверсано, Марк Д. Эванс
Оператор: Оливер Вуд
Композитор: Рамин Джавади
В ролях: Дензел Вашингтон, Райан Рейнольдс, Вера Фармига, Брендан Глисон, Сэм Шепард, Рубен Бладес, Нора Арнезедер, Роберт Патрик, Лиам Каннингэм, Юэль , Киннаман
Бюджет: $85 000 000
Сборы в США: $126 181 630
Сборы в России: $2 877 561
Сборы в мире: $203 079 209
Описание: Выпускник Гарварда Мэтт мечтает со своей невестой переехать в Париж. Но она не знает, что уже год он работает на ЦРУ.
Легендарный агент ЦРУ Фрост владеет секретной информацией. Но он вышел из-под контроля, и теперь его главное правило: «не доверяй никому - тебя предаст каждый».
Их пути пересекутся в одном из красивейших городов мира - Кейптауне, где каждый должен будет сделать свой выбор.

Изображение
MPAA: Изображение
Мировая премьера: 7 февраля 2012
Релиз на DVD: 14 июня 2012, «Двадцатый Век Фокс СНГ»
Релиз на Blu-ray: 14 июня 2012, «Двадцатый Век Фокс СНГ»
Раздача группы: Изображение
Качество: BDRip, 720p
Формат: Matroska
Видео: AVC; 1280x534 (2.35:1); 9260 Kbps
Аудио №1: Russian; AC3; 384 Kbps; CBR; 6 ch
Аудио №2: DTS; 1509 Kbps; CBR; 6 ch; 24 bit
Оригинал
Субтитры:

"Знаете ли Вы, что..."
  • На роль Мэтта Уэстона рассматривались Шайа Лабаф, Тейлор Китч, Крис Пайн, Сэм Уортингтон, Гаррет Хедлунд , Зак Эфрон, Ченнинг Татум, Крис Хемсворт и Джейк Джилленхол.
Свернуть
MediaInfo
General
Unique ID : 213911043025206801356943856005297702423 (0xA0EDC4B09A279EC09D07BE648A938617)
Complete name : Kod.dostupa.Keyptaun.2012.D.BDRip.720p.mkv
Format : Matroska
File size : 9.13 GiB
Duration : 1h 54mn
Overall bit rate : 11.4 Mbps
Encoded date : UTC 2012-06-06 16:11:11
Writing application : mkvmerge v5.6.0 ('Kenya Kane') built on May 27 2012 16:44:04
Writing library : libebml v1.2.3 + libmatroska v1.3.0
Video #1
ID : 1
Format : AVC
Format/Info : Advanced Video Codec
Format profile : High@L4.1
Format settings, CABAC : Yes
Format settings, ReFrames : 12 frames
Muxing mode : Header stripping
Codec ID : V_MPEG4/ISO/AVC
Duration : 1h 54mn
Bit rate : 9 500 Kbps
Width : 1 280 pixels
Height : 534 pixels
Display aspect ratio : 2.40:1
Frame rate : 23.976 fps
Color space : YUV
Chroma subsampling : 4:2:0
Bit depth : 8 bits
Scan type : Progressive
Bits/(Pixel*Frame) : 0.580
Stream size : 7.43 GiB (81%)
Title : Kod.dostupa.keyptaun.2012.D.BDRip.720p
Writing library : x264 core 125 r2200 999b753
Encoding settings : cabac=1 / ref=12 / deblock=1:-3:-3 / analyse=0x3:0x113 / me=umh / subme=10 / psy=1 / psy_rd=1.10:0.00 / mixed_ref=1 / me_range=32 / chroma_me=1 / trellis=2 / 8x8dct=1 / cqm=0 / deadzone=21,11 / fast_pskip=0 / chroma_qp_offset=-2 / threads=18 / lookahead_threads=3 / sliced_threads=0 / nr=0 / decimate=0 / interlaced=0 / bluray_compat=0 / constrained_intra=0 / bframes=8 / b_pyramid=2 / b_adapt=2 / b_bias=0 / direct=3 / weightb=1 / open_gop=0 / weightp=2 / keyint=240 / keyint_min=24 / scenecut=40 / intra_refresh=0 / rc_lookahead=240 / rc=2pass / mbtree=1 / bitrate=9500 / ratetol=1.0 / qcomp=0.70 / qpmin=0 / qpmax=69 / qpstep=4 / cplxblur=20.0 / qblur=0.5 / ip_ratio=1.40 / aq=1:0.65
Language : English
Audio #2
ID : 2
Format : AC-3
Format/Info : Audio Coding 3
Mode extension : CM (complete main)
Muxing mode : Header stripping
Codec ID : A_AC3
Duration : 1h 54mn
Bit rate mode : Constant
Bit rate : 384 Kbps
Channel(s) : 6 channels
Channel positions : Front: L C R, Side: L R, LFE
Sampling rate : 48.0 KHz
Bit depth : 16 bits
Compression mode : Lossy
Stream size : 316 MiB (3%)
Title : AC3 5.1 @ 384 kbps [Dub]
Language : Russian
Audio #3
ID : 3
Format : DTS
Format/Info : Digital Theater Systems
Muxing mode : Header stripping
Codec ID : A_DTS
Duration : 1h 54mn
Bit rate mode : Constant
Bit rate : 1 510 Kbps
Channel(s) : 6 channels
Channel positions : Front: L C R, Side: L R, LFE
Sampling rate : 48.0 KHz
Bit depth : 24 bits
Compression mode : Lossy
Delay relative to video : 22ms
Stream size : 1.21 GiB (13%)
Title : DTS 5.1 @ 1510 kbps [Original]
Language : English
Text #4
ID : 4
Format : UTF-8
Codec ID : S_TEXT/UTF8
Codec ID/Info : UTF-8 Plain Text
Title : Full
Language : English

Свернуть

Скриншоты

Изображение
Изображение
Изображение
Изображение
Изображение
Изображение
Свернуть
_________________
ИзображениеИзображение Изображение
Изображение
 tany1984 и di-ys1 нравится это.
Не в сети
Профиль  
 Добавлено: 2012-06-07 11:18 (спустя 12 часов)
Top-releaser
Аватара пользователя
Стаж: 6 лет 7 месяцев
Сообщений: 2078
Спасибок: 3230
Лайков: 9
rotametr
Спасибо. Давно ждал :)
Не в сети
Профиль  
 Добавлено: 2012-06-07 18:25 (спустя 7 часов)
Аватара пользователя
Стаж: 9 лет
Сообщений: 167
Спасибок: 38
фильм класс но выложи полный блю рей
Не в сети
Профиль  
 Добавлено: 2012-06-07 19:36 (спустя 1 час 10 минут)
Модератор
Аватара пользователя
Стаж: 6 лет 10 месяцев
Возраст: 33
Сообщений: 5908
Спасибок: 61265
Лайков: 3540
yyuuii1223 не за что.
dilmah ремукс выкладываю.
_________________
ИзображениеИзображение Изображение
Изображение
Не в сети
Профиль  
Начать новую темуОтветить на тему  [ Сообщений: 4 ] 
Вы не можете начинать темы
Вы не можете отвечать на сообщения
Вы не можете редактировать свои сообщения
Вы не можете удалять свои сообщения