Правила форума

  • В этом разделе создание новых тем Запрещено.
  • Для создания новых тем пользуйтесь Корневым разделом DVD и HD фильмы.
Начать новую темуОтветить на тему  [ Сообщений: 6 ] 
Торрент файл
Размер: 4.37 GB • Зарегистрирован: 4 года 2 месяца • Статус: Проверено
Скачан: 39 раз • Желающих скачать: 0 • Поблагодарили: 11 раз
 Раздают: 0  |  0 KB/s  ]   Качают: 0  |  0 KB/s  ] 
 Полного источника не было 3 года 2 месяца 
Сообщения
 Добавлено: 2012-09-21 11:58
Аватара пользователя
Стаж: 8 лет 1 месяц
Возраст: 27
Сообщений: 176
Спасибок: 968
Лайков: 1
Код доступа «София» / Sofia

Изображение

Изображение


Год выпуска: 2012
Страна: США (Mutressa Movies)
Слоган: «Правду знает только один»
Жанр: боевик, триллер, драма
Продолжительность: 01:27:33
Перевод: Профессиональный (многоголосый закадровый) [Лицензия]

Режиссёр: Айзек Флорентайн
Сценарист: Nancy L. Babine, Hans Feuersinger, Элика Портной
Продюсер: Дэвид Е. Орнстон, Бо Дж. Гено, Патрик Джером
Оператор: Росс В. Кларксон
Композитор: Саймон Стивенс
В ролях: Кристиан Слэйтер, Дональд Сазерленд, Элика Портной, Тимоти Сполл, Ивайло Герасков, Иван Коцев, Tanya Mickov, Васил Михайлов, Башар Рахаль
Описание: В болгарской столице Софии происходят странные и зловещие события. Криминальные группировки города стали мишенью некоего загадочного убийцы. Охотник невероятно ловок и тщательно экипирован, он беспощаден и неуловим. Что это — месть? Разборки конкурентов? Банальное ограбление? Найти разгадку берется детектив Роберт, которому предстоит опросить множество людей, посетить огромное количество мест, попасть в безвыходную ситуацию и оказаться на волоске от смерти, но все же раскрыть тайну Софии.
Релиз группы: Изображение
Рейтинг MPAA: Рейтинг R (Подростки до 17 лет допускаются на фильм только в сопровождении одного из родителей)
Изображение
Мировая премьера: 18 апреля 2012
Бюджет: $5 000 000
Изображение 3.965 (110)
Изображение 3.6 (1000)

Качество: BDRip [1080p]
Видео: 1920x1072, 6452 Кбит/сек, 23,976 кадр/сек, AVC, x264, 16:9, 0.131 Бит/[Пиксели*Кадры], 2pass
Аудио: AC-3, 384 Кбит/сек, 6 канала(ов), 48,0 КГц
Размер: 4,37 ГБ
Изображение
Скриншоты
Изображение
Изображение
Изображение
Изображение
Свернуть
MI
Общее
Уникальный идентификатор : 176857186499904884365063952985267010619 (0x850D7483CB6460FAB09D5BD6633E7C3B)
Полное имя : E:ЗагрузкиSofia.2012.x264.BDRip.1080p.MVO.mkv
Формат : Matroska
Версия формата : Version 2
Размер файла : 4,37 Гбайт
Продолжительность : 1 ч. 31 м.
Общий поток : 6833 Кбит/сек
Дата кодирования : UTC 2012-09-20 12:23:07
Программа кодирования : mkvmerge v5.5.0 ('Healer') built on Apr 6 2012 21:43:24
Библиотека кодирования : libebml v1.2.3 + libmatroska v1.3.0

Видео
Идентификатор : 1
Формат : AVC
Формат/Информация : Advanced Video Codec
Профиль формата : High@L4.0
Параметр CABAC формата : Да
Параметр ReFrames формата : 4 кадра
Идентификатор кодека : V_MPEG4/ISO/AVC
Продолжительность : 1 ч. 31 м.
Битрейт : 6452 Кбит/сек
Ширина : 1920 пикселей
Высота : 1072 пикселя
Соотношение сторон : 16:9
Соотношение сторон в оригинале : 16:9
Частота кадров : 23,976 кадра/сек
Цветовое пространство : YUV
Субдискретизация насыщенности : 4:2:0
Битовая глубина : 8 бит
Тип развёртки : Прогрессивная
Бит/(Пиксели*Кадры) : 0.131
Размер потока : 4,03 Гбайт (92%)
Заголовок : Код доступа «София»
Библиотека кодирования : x264 core 125 r2208 d9d2288
Настройки программы : cabac=1 / ref=3 / deblock=1:0:0 / analyse=0x3:0x133 / me=hex / subme=7 / psy=1 / psy_rd=1.00:0.00 / mixed_ref=1 / me_range=16 / chroma_me=1 / trellis=1 / 8x8dct=1 / cqm=0 / deadzone=21,11 / fast_pskip=1 / chroma_qp_offset=-2 / threads=12 / lookahead_threads=2 / sliced_threads=0 / nr=0 / decimate=1 / interlaced=0 / bluray_compat=0 / constrained_intra=0 / bframes=3 / b_pyramid=2 / b_adapt=1 / b_bias=0 / direct=1 / weightb=1 / open_gop=0 / weightp=2 / keyint=240 / keyint_min=23 / scenecut=40 / intra_refresh=0 / rc_lookahead=40 / rc=2pass / mbtree=1 / bitrate=6452 / ratetol=1.0 / qcomp=0.60 / qpmin=0 / qpmax=69 / qpstep=4 / cplxblur=20.0 / qblur=0.5 / ip_ratio=1.40 / aq=1:1.00
Язык : English
Default : Да
Forced : Нет

Аудио
Идентификатор : 2
Формат : AC-3
Формат/Информация : Audio Coding 3
Расширение режима : CM (complete main)
Идентификатор кодека : A_AC3
Продолжительность : 1 ч. 31 м.
Вид битрейта : Постоянный
Битрейт : 384 Кбит/сек
Каналы : 6 каналов
Расположение каналов : Front: L C R, Side: L R, LFE
Частота : 48,0 КГц
Битовая глубина : 16 бит
Метод сжатия : С потерями
Размер потока : 251 Мбайт (6%)
Заголовок : Профессиональное (многоголосое) [лицензия]
Язык : Russian
Default : Да
Forced : Нет
Свернуть
Не в сети
Профиль  
 Добавлено: 2012-09-21 13:41 (спустя 1 час 43 минуты)
Аватара пользователя
Стаж: 4 года 8 месяцев
Сообщений: 347
Лайков: 6
Интерессно, товарищ Слейтер из Дезерт игла тоже одной левой стреляет как и на обложке? Теперь ясно почему правая перемотана...
Не в сети
Профиль  
 Добавлено: 2012-09-21 13:42 (спустя 1 минута)
Аватара пользователя
Стаж: 8 лет 1 месяц
Возраст: 27
Сообщений: 176
Спасибок: 968
Лайков: 1
YesMan. :-D
Не в сети
Профиль  
 Добавлено: 2012-09-21 17:52 (спустя 4 часа)
Стаж: 7 лет 2 месяца
Сообщений: 81
Может быть фото отобразили,от куда вам знать
Не в сети
Профиль  
 Добавлено: 2012-09-21 20:34 (спустя 2 часа 41 минута)
Аватара пользователя
Стаж: 4 года 8 месяцев
Сообщений: 347
Лайков: 6
Знаю лишь то, что после выстрела пол обоймы из него у него рука бы стала гибкой как колбаса, а голова обрела бы две половины.
Не в сети
Профиль  
 Добавлено: 2012-09-23 18:45 (спустя 1 день 22 часа)
Стаж: 8 лет
Сообщений: 7
Фильм муть - мне не понравился. Развязка - ад.
Не в сети
Профиль  
Начать новую темуОтветить на тему  [ Сообщений: 6 ] 
Вы не можете начинать темы
Вы не можете отвечать на сообщения
Вы не можете редактировать свои сообщения
Вы не можете удалять свои сообщения