Правила форума

  • В этом разделе создание новых тем Запрещено.
  • Для создания новых тем пользуйтесь Корневым разделом DVD и HD фильмы.
Начать новую темуОтветить на тему  [ 1 сообщение ] 
Торрент файл
Размер: 8.87 GB • Зарегистрирован: 4 года 2 месяца • Статус: Проверено
Скачан: 45 раз • Желающих скачать: 0 • Поблагодарили: 12 раз
 Раздают: 0  |  0 KB/s  ]   Качают: 0  |  0 KB/s  ] 
 Полного источника не было 1 год 10 месяцев 
Сообщения
 Добавлено: 2012-09-25 18:13
Модератор
Аватара пользователя
Стаж: 8 лет 1 месяц
Сообщений: 1991
Спасибок: 129867
Лайков: 20
Код доступа «София» / Sofia


«Правду знает только один»



Изображение
Год выпуска: 2012
Страна: Изображение США
Жанр: боевик, триллер, драма
Продолжительность:
01:31:27

Перевод: Профессиональный (многоголосый, закадровый) [лицензия]

Режиссер: Айзек Флорентайн
Сценарий: Nancy L. Babine, Hans Feuersinger, Элика Портной
Продюсер: Дэвид Е. Орнстон, Бо Дж. Гено, Патрик Джером, Michael J. Urann
Оператор: Росс В. Кларксон
Композитор: Саймон Стивенс

В ролях:
Кристиан Слэйтер (Robert), Дональд Сазерленд (Ambassador Ashdown), Элика Портной (Vicky), Тимоти Сполл (Dr. Kahn), Ивайло Герасков (Aleks), Иван Коцев (Vicky's Dad), Tanya Mickov (Vicky' Mom), Васил Михайлов (Turkish gangster), Башар Рахаль (Abdullah Said), Mariana Stanisheva (Zoey), Stoyanova Velizara (Waitress), Marian Vulev (Spasov)

Описание: В болгарской столице Софии происходят странные и зловещие события. Криминальные группировки города стали мишенью некоего загадочного убийцы. Охотник невероятно ловок и тщательно экипирован, он беспощаден и неуловим. Что это - месть? Разборки конкурентов? Банальное ограбление? Найти разгадку берется детектив Роберт, которому предстоит опросить множество людей, посетить огромное количество мест, попасть в безвыходную ситуацию и оказаться на волоске от смерти, но все же раскрыть тайну Софии.


Изображение: 3.952 (124)
Изображение: 3.60 (1 045)

MPAA: Изображение - Лицам до 17 лет обязательно присутствие взрослого

Доп. Информация

Бюджет: $5 000 000
Мировая премьера: 18 апреля 2012
Изображение Релиз на DVD: 19 сентября 2012, «Кармен Видео», «ВС трейд»
Изображение Релиз на Blu-ray: 19 сентября 2012, «Кармен Видео»

Свернуть


Качество: BDRip 1080p R5

Формат: MKV
Видео: AVC; 1920x1080 (16:9); 12000 Kbps; 23,976 fps; 0,241 bpp
Аудио №1: русский; AC3; 384 Kbps; CBR; 6 ch; 16 bit
Аудио №2: английский; DTS; 1510 Kbps; CBR; 6 ch; 16 bit
Субтитры №1: русские
Субтитры №2: английские



BDInfo
General
Unique ID : 210324680918208282899015251559435534327 (0x9E3B0F62DF0F9E5FB98B398F36D8FFF7)
Complete name : Kod.Dostupa.Sofija.2012.BDRip.1080p.Rus.Eng.mkv
Format : Matroska
Format version : Version 2
File size : 8.87 GiB
Duration : 1h 31mn
Overall bit rate : 13.9 Mbps
Movie name : Kod.Dostupa.Sofija.2012.MVO.BDRip.1080p
Encoded date : UTC 2012-09-17 21:19:23
Writing application : mkvmerge v5.7.0 ('The Whirlwind') built on Jul 8 2012 20:08:51
Writing library : libebml v1.2.3 + libmatroska v1.3.0
Video
ID : 1
Format : AVC
Format/Info : Advanced Video Codec
Format profile : High@L4.1
Format settings, CABAC : Yes
Format settings, ReFrames : 4 frames
Codec ID : V_MPEG4/ISO/AVC
Duration : 1h 31mn
Bit rate : 12.0 Mbps
Width : 1 920 pixels
Height : 1 080 pixels
Display aspect ratio : 16:9
Frame rate mode : Constant
Frame rate : 23.976 fps
Color space : YUV
Chroma subsampling : 4:2:0
Bit depth : 8 bits
Scan type : Progressive
Bits/(Pixel*Frame) : 0.241
Stream size : 7.49 GiB (84%)
Title : Kod.Dostupa.Sofija.2012.MVO.BDRip.1080p
Writing library : x264 core 116 r2074 2641b9e
Encoding settings : cabac=1 / ref=4 / deblock=1:0:0 / analyse=0x3:0x113 / me=esa / subme=11 / psy=1 / psy_rd=1.00:0.00 / mixed_ref=1 / me_range=48 / chroma_me=1 / trellis=2 / 8x8dct=1 / cqm=0 / deadzone=21,11 / fast_pskip=1 / chroma_qp_offset=-2 / threads=12 / sliced_threads=0 / nr=0 / decimate=1 / interlaced=0 / bluray_compat=0 / constrained_intra=0 / bframes=9 / b_pyramid=2 / b_adapt=1 / b_bias=0 / direct=1 / weightb=1 / open_gop=0 / weightp=2 / keyint=250 / keyint_min=23 / scenecut=40 / intra_refresh=0 / rc_lookahead=40 / rc=2pass / mbtree=1 / bitrate=12000 / ratetol=1.0 / qcomp=0.70 / qpmin=10 / qpmax=51 / qpstep=4 / cplxblur=20.0 / qblur=0.5 / ip_ratio=1.40 / aq=1:1.00
Language : English
Default : Yes
Forced : No
Audio #1
ID : 2
Format : AC-3
Format/Info : Audio Coding 3
Mode extension : CM (complete main)
Format settings, Endianness : Big
Codec ID : A_AC3
Duration : 1h 31mn
Bit rate mode : Constant
Bit rate : 384 Kbps
Channel(s) : 6 channels
Channel positions : Front: L C R, Side: L R, LFE
Sampling rate : 48.0 KHz
Bit depth : 16 bits
Compression mode : Lossy
Stream size : 251 MiB (3%)
Title : AC3 5.1 @ 384 Kbps - MVO
Language : Russian
Default : Yes
Forced : No
Audio #2
ID : 3
Format : DTS
Format/Info : Digital Theater Systems
Codec ID : A_DTS
Duration : 1h 31mn
Bit rate mode : Constant
Bit rate : 1 510 Kbps
Channel(s) : 6 channels
Channel positions : Front: L C R, Side: L R, LFE
Sampling rate : 48.0 KHz
Bit depth : 16 bits
Compression mode : Lossy
Stream size : 988 MiB (11%)
Title : DTS 5.1 @ 1510 Kbps - Original
Language : English
Default : No
Forced : No
Text #1
ID : 4
Format : UTF-8
Codec ID : S_TEXT/UTF8
Codec ID/Info : UTF-8 Plain Text
Title : Russian (Full)
Language : Russian
Default : No
Forced : No
Text #2
ID : 5
Format : UTF-8
Codec ID : S_TEXT/UTF8
Codec ID/Info : UTF-8 Plain Text
Title : English (SDH)
Language : English
Default : No
Forced : No
Menu
00:00:00.000 : en:Chapter 00
00:06:17.418 : en:Chapter 01
00:16:10.469 : en:Chapter 02
00:21:57.149 : en:Chapter 03
00:28:42.137 : en:Chapter 04
00:37:19.320 : en:Chapter 05
00:46:06.889 : en:Chapter 06
00:55:28.283 : en:Chapter 07
01:01:58.756 : en:Chapter 08
01:11:09.807 : en:Chapter 09
01:17:29.853 : en:Chapter 10
01:26:26.806 : en:Chapter 11
Свернуть
Скриншоты
Изображение
Изображение
Изображение
Изображение
Свернуть

_________________
Себе ты можешь не качать, но раздавать другим обязан!
Не в сети
Профиль  
Начать новую темуОтветить на тему  [ 1 сообщение ] 
Вы не можете начинать темы
Вы не можете отвечать на сообщения
Вы не можете редактировать свои сообщения
Вы не можете удалять свои сообщения