Правила форума

  • В этом разделе создание новых тем Запрещено.
  • Для создания новых тем пользуйтесь Корневым разделом DVD и HD фильмы.
Начать новую темуОтветить на тему  [ 1 сообщение ] 
Торрент файл
Размер: 6.91 GB • Зарегистрирован: 4 года 11 месяцев • Статус: Проверено
Скачан: 141 раз • Желающих скачать: 0 • Поблагодарили: 32 раза
 Раздают: 0  |  0 KB/s  ]   Качают: 0  |  0 KB/s  ] 
 Полного источника не было 3 дня 
Сообщения
 Добавлено: 2011-12-12 18:05
Top-seeder
Аватара пользователя
Стаж: 9 лет
Сообщений: 1399
Спасибок: 28652
Лайков: 8
Изображение


Название: Кожа, в которой я живу
Оригинальное название: The Skin I Live In
Год выпуска: 2011
Жанр: триллер, драма
Режиссер: Педро Альмодовар
В ролях: Антонио Бандерас, Елена Анайя, Бланка Суарез, Жан Корнет, Мариса Паредес, Барбара Ленни, Фернандо Кайо, Эдуард Фернандес, Роберто Аламо, Агустин Альмодовар и др.

О фильме:
Гений пластической хирургии д-р Ледгард, путем дерзких генетических экспериментов создавший искусственную человеческую кожу, ведет охоту на подонка, который много лет назад изнасиловал его дочь. Жестокость его мести не знает предела…

Выпущено: Испания, Canal+ Espana
Продолжительность: 02:00:09
Озвучивание: Дублированное [лицензия]

Файл:
Формат: MKV
Качество: BDRip 720p
Видео: MPEG-4 AVC, 5215 Кбит/с, 1280x688
Аудио: Русский (DTS, 6 ch, 1510 Кбит/с) / Испанский (DTS, 6 ch, 1510 Кбит/с)
Cубтитры: Russian

MI
Общее
Уникальный идентификатор : 240103094399365711179643778502490652228 (0xB4A22C864ED8C1E5A7A2B3141948FE44)
Полное имя : D:\Закачки\The Skin I Live In (2011).mkv
Формат : Matroska
Размер файла : 6,91 Гбайт
Продолжительность : 2 ч. 0 м.
Общий поток : 8234 Кбит/сек
Дата кодирования : UTC 2011-12-10 14:02:15
Программа кодирования : mkvmerge v3.4.0 ('Rapunzel') built on May 15 2010 09:38:20
Библиотека кодирования : libebml v0.8.0 + libmatroska v0.9.0

Видео
Идентификатор : 1
Формат : AVC
Формат/Информация : Advanced Video Codec
Профиль формата : High@L3.1
Параметр CABAC формата : Да
Параметр ReFrames формата : 4 кадра
Параметры GOP формата : M=12, N=13
Идентификатор кодека : V_MPEG4/ISO/AVC
Продолжительность : 2 ч. 0 м.
Битрейт : 5215 Кбит/сек
Ширина : 1280 пикс.
Высота : 688 пикс.
Соотношение сторон : 1,860
Частота кадров : 24,000 кадр/сек
Цветовое пространство : YUV
Подвыборка цветности : 4:2:0
Битовая глубина : 8 бит
Тип развёртки : Прогрессивная
Бит/(Пиксели*Кадры) : 0.247
Размер потока : 4,24 Гбайт (61%)
Библиотека кодирования : x264 core 119 r2106 07efeb4
Настройки программы : cabac=1 / ref=3 / deblock=1:0:0 / analyse=0x3:0x133 / me=hex / subme=5 / psy=1 / psy_rd=1.00:0.00 / mixed_ref=0 / me_range=16 / chroma_me=1 / trellis=1 / 8x8dct=1 / cqm=0 / deadzone=21,11 / fast_pskip=1 / chroma_qp_offset=0 / threads=12 / sliced_threads=0 / nr=0 / decimate=1 / interlaced=0 / bluray_compat=0 / constrained_intra=0 / bframes=16 / b_pyramid=2 / b_adapt=1 / b_bias=0 / direct=3 / weightb=0 / open_gop=0 / weightp=2 / keyint=250 / keyint_min=23 / scenecut=40 / intra_refresh=0 / rc_lookahead=40 / rc=2pass / mbtree=1 / bitrate=5215 / ratetol=1.0 / qcomp=0.60 / qpmin=0 / qpmax=69 / qpstep=4 / cplxblur=20.0 / qblur=0.5 / ip_ratio=1.40 / aq=1:1.00

Аудио #1
Идентификатор : 2
Формат : DTS
Формат/Информация : Digital Theater Systems
Идентификатор кодека : A_DTS
Продолжительность : 2 ч. 0 м.
Вид битрейта : Постоянный
Битрейт : 1510 Кбит/сек
Каналы : 6 каналов
Расположение каналов : Front: L C R, Side: L R, LFE
Частота : 48,0 КГц
Битовая глубина : 16 бит
Метод сжатия : С потерями
Задержка видео : 11 мс.
Размер потока : 1,27 Гбайт (18%)
Заголовок : Russian @ DTS 5.1 @ 1510 kbps
Язык : Russian

Аудио #2
Идентификатор : 3
Формат : DTS
Формат/Информация : Digital Theater Systems
Идентификатор кодека : A_DTS
Продолжительность : 2 ч. 0 м.
Вид битрейта : Постоянный
Битрейт : 1510 Кбит/сек
Каналы : 6 каналов
Расположение каналов : Front: L C R, Side: L R, LFE
Частота : 48,0 КГц
Битовая глубина : 16 бит
Метод сжатия : С потерями
Размер потока : 1,27 Гбайт (18%)
Заголовок : Spanish @ DTS 5.1 @ 1510 kbps
Язык : Spanish

Текст
Идентификатор : 4
Формат : UTF-8
Идентификатор кодека : S_TEXT/UTF8
Идентификатор кодека/Информация : UTF-8 Plain Text
Заголовок : Russian
Язык : Russian

Свернуть

Скриншоты
ИзображениеИзображениеИзображение
Свернуть
Не в сети
Профиль  
Начать новую темуОтветить на тему  [ 1 сообщение ] 
Вы не можете начинать темы
Вы не можете отвечать на сообщения
Вы не можете редактировать свои сообщения
Вы не можете удалять свои сообщения