Правила форума

  • В этом разделе создание новых тем Запрещено.
  • Для создания новых тем пользуйтесь Корневым разделом DVD и HD фильмы.
Начать новую темуОтветить на тему  [ Сообщений: 5 ] 
Торрент файл
Размер: 4.62 GB • Зарегистрирован: 4 года • Статус: T Временный релиз
Скачан: 36 раз • Желающих скачать: 0 • Поблагодарили: 10 раз
 Раздают: 0  |  0 KB/s  ]   Качают: 0  |  0 KB/s  ] 
 Полного источника не было 3 года 2 месяца 
Сообщения
 Добавлено: 2012-11-08 11:41
Модератор
Аватара пользователя
Стаж: 6 лет 10 месяцев
Возраст: 33
Сообщений: 5908
Спасибок: 61259
Лайков: 3540
Изображение

Кокни против зомби
Cockneys vs Zombies


Год выпуска: 2012
Страна: Великобритания
Жанр: ужасы, комедия
Продолжительность: 01:28:23
Перевод: Любительский (двухголосый) - [Cтудия "Райдо]
Режиссер: Matthias Hoene
Сценарий: Джеймс Моран, Лукас Рош
Продюсер: Джеймс Харрис, Mark Lane, Mark Birmingham, Эндрю Босвелл, Саймон Кроу
Оператор: Дэниэл Бронкс
Композитор: Джоди К. Дженкинс
В ролях: Мишель Райан, Джорджия Кинг, Алан Форд, Онор Блэкман, Ли Асквит-Коу, Гарри Тредэвэй, Фордхэм Сьюзэн, Ричард Брирс, Тони Гарднер, Расмус Хардайкер, Крис Соммервиль, Доминик Бёрнс

Мировая премьера: 23 августа 2012
Описание: Строители находят древнюю могилу и выпускают в современный Лондон вирус, который обычные трупы превращает в ходячие и поедающие живых. Ещё одна проблема - дом престарелых «Бубенчики» сносят под новое строительство, а у главных героев там живет любимый дедушка с друзьями. Как оставить дом престарелых на месте? Очень просто! Выкупить землю! А где взять деньги? Ограбить банк!

Изображение User Rating: 5.973 (99)
Изображение User Rating: 6.20 (1 546)
Раздача группы: Изображение
Изображение
Качество: BDRip, 720p
Формат: Matroska
Видео: AVC; 1280x544 (2.35:1); 5383 Kbps; 24 fps; 0,322 bit/pixel
Аудио №1: Russian; AC3; 448 Kbps; CBR; 6 ch
Аудио №2: DTS; 1509 Kbps; CBR; 6 ch; 16 bit
Оригинал
mediainfo
Общее
Уникальный идентификатор : 213871717097006131464096081085994073860 (0xA0E631C59AE55FA580F4402E576F7F04)
Полное имя : E:ТоррентыKokni.protiv.zombi.2012.L2.BDRip.720p.mkv
Формат : Matroska
Версия формата : Version 2
Размер файла : 4,62 Гбайт
Продолжительность : 1 ч. 28 м.
Общий поток : 7490 Кбит/сек
Дата кодирования : UTC 2012-11-07 13:12:41
Программа кодирования : mkvmerge v5.2.0 ('I can't explain') built on Dec 18 2011 18:12:03
Библиотека кодирования : libebml v1.2.3 + libmatroska v1.3.0

Видео
Идентификатор : 1
Формат : AVC
Формат/Информация : Advanced Video Codec
Профиль формата : High@L4.1
Параметр CABAC формата : Да
Параметр ReFrames формата : 5 кадров
Идентификатор кодека : V_MPEG4/ISO/AVC
Продолжительность : 1 ч. 28 м.
Битрейт : 5570 Кбит/сек
Ширина : 1280 пикселей
Высота : 544 пикселя
Соотношение сторон : 2,35:1
Частота кадров : 24,000 кадра/сек
Цветовое пространство : YUV
Субдискретизация насыщенности : 4:2:0
Битовая глубина : 8 бит
Тип развёртки : Прогрессивная
Бит/(Пиксели*Кадры) : 0.333
Размер потока : 3,32 Гбайт (72%)
Библиотека кодирования : x264 core 125 r2200 999b753
Настройки программы : cabac=1 / ref=5 / deblock=1:0:0 / analyse=0x3:0x133 / me=umh / subme=7 / psy=1 / psy_rd=1.00:0.00 / mixed_ref=1 / me_range=16 / chroma_me=1 / trellis=1 / 8x8dct=1 / cqm=0 / deadzone=21,11 / fast_pskip=0 / chroma_qp_offset=-2 / threads=24 / lookahead_threads=4 / sliced_threads=0 / nr=0 / decimate=1 / interlaced=0 / bluray_compat=0 / constrained_intra=0 / bframes=3 / b_pyramid=2 / b_adapt=1 / b_bias=0 / direct=3 / weightb=1 / open_gop=0 / weightp=2 / keyint=240 / keyint_min=24 / scenecut=40 / intra_refresh=0 / rc_lookahead=40 / rc=2pass / mbtree=1 / bitrate=5570 / ratetol=1.0 / qcomp=0.60 / qpmin=10 / qpmax=51 / qpstep=4 / cplxblur=20.0 / qblur=0.5 / ip_ratio=1.40 / aq=1:1.00
Язык : English
Default : Да
Forced : Нет

Аудио #1
Идентификатор : 2
Формат : AC-3
Формат/Информация : Audio Coding 3
Расширение режима : CM (complete main)
Идентификатор кодека : A_AC3
Продолжительность : 1 ч. 28 м.
Вид битрейта : Постоянный
Битрейт : 448 Кбит/сек
Каналы : 6 каналов
Расположение каналов : Front: L C R, Side: L R, LFE
Частота : 48,0 КГц
Битовая глубина : 16 бит
Метод сжатия : С потерями
Размер потока : 283 Мбайт (6%)
Язык : Russian
Default : Да
Forced : Да

Аудио #2
Идентификатор : 3
Формат : DTS
Формат/Информация : Digital Theater Systems
Идентификатор кодека : A_DTS
Продолжительность : 1 ч. 28 м.
Вид битрейта : Постоянный
Битрейт : 1510 Кбит/сек
Каналы : 6 каналов
Расположение каналов : Front: L C R, Side: L R, LFE
Частота : 48,0 КГц
Битовая глубина : 16 бит
Метод сжатия : С потерями
Размер потока : 954 Мбайт (20%)
Язык : English
Default : Нет
Forced : Нет
Свернуть
Скриншоты

Изображение
Изображение
Изображение
Свернуть
_________________
ИзображениеИзображение Изображение
Изображение
 tany1984 и di-ys1 нравится это.
Не в сети
Профиль  
 Добавлено: 2012-11-08 18:33 (спустя 6 часов)
Аватара пользователя
Стаж: 7 лет 4 месяца
Возраст: 24
Сообщений: 510
Спасибок: 4597
Лайков: 2
Снято в стране Великобритания, и этим всё сказано...хотя там и снимаются иногда хорошие фильмы(в основном совместно с голивудом), но ужасы там снимать не научились!
Не в сети
Профиль  
 Добавлено: 2012-11-13 18:51 (спустя 5 дней)
Аватара пользователя
Стаж: 7 лет
Возраст: 30
Сообщений: 507
Спасибок: 1931
ALEX47
И что же этим сказано? Если бы ты так про российский кинематограф написал, где лишь иногда снимают хорошие фильмы, это было бы вполне логично.
А вот про UK - это напрасно. На ум сразу приходят Гордость и предубеждение, Карты, деньги, два ствола, Догвилль и Мандерлей, параноидальный Tideland, Пианист, Юнайтед, Луна 2112, Призрак Полански, а оскароносные король говорит, миллионер из трущоб, Последний король Шотландии! И это первое что пришло в голову. И все это без голливуда (возможно с некоторыми фильмами могу ошибаться).
А ужасы снимать они сами кого хочешь научат. Как тебе Пандорум и 28 дней / недель спустя?
_________________
Изображение
Не в сети
Профиль  
 Добавлено: 2012-11-19 13:01 (спустя 5 дней)
Аватара пользователя
Стаж: 4 года 8 месяцев
Сообщений: 138
фильм не смотрел но аргумент весомый.надо скачать
Не в сети
Профиль  
 Добавлено: 2012-11-20 16:02 (спустя 1 день 3 часа)
Аватара пользователя
Стаж: 4 года 8 месяцев
Сообщений: 138

danger555:

фильм не смотрел но аргумент весомый.надо скачать
точно фильм ..рень полная
Не в сети
Профиль  
Начать новую темуОтветить на тему  [ Сообщений: 5 ] 
Вы не можете начинать темы
Вы не можете отвечать на сообщения
Вы не можете редактировать свои сообщения
Вы не можете удалять свои сообщения