Правила форума

  • В этом разделе создание новых тем Запрещено.
  • Для создания новых тем пользуйтесь Корневым разделом DVD и HD фильмы.
Начать новую темуОтветить на тему  [ 1 сообщение ] 
Торрент файл
Размер: 5.77 GB • Зарегистрирован: 3 года 10 месяцев • Статус: Проверено
Скачан: 79 раз • Желающих скачать: 0 • Поблагодарили: 15 раз
 Раздают: 0  |  0 KB/s  ]   Качают: 0  |  0 KB/s  ] 
 Полного источника не было 1 год 3 месяца 
Сообщения
 Добавлено: 2013-01-26 14:11
Руководитель релиз-группы
Аватара пользователя
Стаж: 7 лет 5 месяцев
Возраст: 31
Сообщений: 3407
Спасибок: 46729
Лайков: 5
Изображение

Коллекционер 2
The Collection


Год выпуска: 2012
Страна: США
Слоган: «Не попади в его коллекцию»
Жанр: ужасы, боевик, триллер
Продолжительность: 01:21:38
Перевод: Профессиональный (полное дублирование) [лицензия]
Режиссер: Маркус Данстэн
Сценарий: Патрик Мелтон, Маркус Данстэн
Продюсер: Бретт Форбс, Мики Лиделл, Джули Ричардсон, Патрик Риззотти, Стефани Аччетта
Оператор: Сэм МакКёрди
Композитор: Чарли Клаузер
В ролях: Джош Стюарт, Эмма Фитцпатрик, Кристофер МакДональд, Ли Тергесен, Тим Гриффин, Андре Ройо, Рэндолл Арчер, Шеннон Кэйн, Брэндон Молале, Эрин Вэй, Джоанна Е. Брэдди, Нави Рават
Бюджет: $10 000 000
Сборы в США: $6 842 058
Сборы в России: $1 010 472
Описание: Бывалому медвежатнику Аркину чудесным образом удалось выбраться из ловушек, расставленных по дому загадочным маньяком Коллекционером. Аркин был уверен, что он никогда в жизни больше не встретится с Коллекциoнером, но cудьба распоряжается иначе.
Изображение
MPAA: Изображение
Мировая премьера: 21 сентября 2012
Релиз на DVD: 30 января 2013, «Кармен Видео», «ВС трейд»
Релиз на Blu-ray: 30 января 2013, «Кармен Видео»
Релиз: Изображение Раздача группы: Изображение
Качество: BDRip, 720p
Формат: MKV
Видео: MPEG-4 AVC, 6892 Кбит/с, 1280x536
Аудио: DTS, 6 ch, 1510 Кбит/с Russian
Аудио: DTS, 6 ch, 1510 Кбит/с English
Субтитры: русские
Изображение
mediainfo
Format : Matroska
Format version : Version 2
File size : 5.77 GiB
Duration : 1h 21mn
Overall bit rate : 10.1 Mbps
Movie name : IRONCLUB
Encoded date : UTC 2013-01-26 06:35:40
Writing application : mkvmerge v5.2.0 ('I can't explain') built on Dec 18 2011 18:12:03
Writing library : libebml v1.2.3 + libmatroska v1.3.0

Video
ID : 1
Format : AVC
Format/Info : Advanced Video Codec
Format profile : High@L4.1
Format settings, CABAC : Yes
Format settings, ReFrames : 12 frames
Codec ID : V_MPEG4/ISO/AVC
Duration : 1h 21mn
Bit rate : 6 892 Kbps
Width : 1 280 pixels
Height : 536 pixels
Display aspect ratio : 2.40:1
Frame rate : 24.000 fps
Color space : YUV
Chroma subsampling : 4:2:0
Bit depth : 8 bits
Scan type : Progressive
Bits/(Pixel*Frame) : 0.419
Stream size : 3.93 GiB (68%)
Title : The Collection 720p BluRay DTS x264-IRONCLUB
Writing library : x264 core 129 r2245kMod bc13772
Encoding settings : cabac=1 / ref=12 / deblock=1:-3:-3 / analyse=0x3:0x113 / me=umh / subme=11 / psy=1 / fade_compensate=0.00 / psy_rd=1.10:0.00 / mixed_ref=1 / me_range=32 / chroma_me=1 / trellis=2 / 8x8dct=1 / cqm=0 / deadzone=21,11 / fast_pskip=0 / chroma_qp_offset=-2 / threads=12 / lookahead_threads=2 / sliced_threads=0 / nr=0 / decimate=1 / interlaced=0 / bluray_compat=0 / constrained_intra=0 / bframes=9 / b_pyramid=2 / b_adapt=2 / b_bias=0 / direct=3 / weightb=1 / open_gop=0 / weightp=2 / keyint=250 / keyint_min=24 / scenecut=40 / intra_refresh=0 / rc_lookahead=60 / rc=crf / mbtree=0 / crf=17.0000 / qcomp=0.70 / qpmin=0 / qpmax=69 / qpstep=4 / vbv_maxrate=50000 / vbv_bufsize=62500 / crf_max=0.0 / nal_hrd=none / ip_ratio=1.30 / pb_ratio=1.20 / aq=1:0.80
Language : English
Default : Yes
Forced : Yes

Audio #1
ID : 2
Format : DTS
Format/Info : Digital Theater Systems
Codec ID : A_DTS
Duration : 1h 21mn
Bit rate mode : Constant
Bit rate : 1 510 Kbps
Channel(s) : 6 channels
Channel positions : Front: L C R, Side: L R, LFE
Sampling rate : 48.0 KHz
Bit depth : 16 bits
Compression mode : Lossy
Stream size : 882 MiB (15%)
Title : DTS 5.1 @ 1536 kbps
Language : Russian
Default : Yes
Forced : Yes

Audio #2
ID : 3
Format : DTS
Format/Info : Digital Theater Systems
Codec ID : A_DTS
Duration : 1h 21mn
Bit rate mode : Constant
Bit rate : 1 510 Kbps
Channel(s) : 6 channels
Channel positions : Front: L C R, Side: L R, LFE
Sampling rate : 48.0 KHz
Bit depth : 16 bits
Compression mode : Lossy
Stream size : 882 MiB (15%)
Title : DTS 5.1 @ 1536 kbps
Language : English
Default : No
Forced : No

Text
ID : 4
Format : UTF-8
Codec ID : S_TEXT/UTF8
Codec ID/Info : UTF-8 Plain Text
Language : Russian
Default : No
Forced : No

Menu
00:00:00.000 : en:00:00:00.000
00:06:29.375 : en:00:06:29.375
00:15:08.875 : en:00:15:08.875
00:22:12.791 : en:00:22:12.791
00:30:06.958 : en:00:30:06.958
00:37:45.750 : en:00:37:45.750
00:45:24.500 : en:00:45:24.500
00:53:11.875 : en:00:53:11.875
00:58:20.375 : en:00:58:20.375
01:04:21.833 : en:01:04:21.833
01:10:12.208 : en:01:10:12.208
01:16:16.583 : en:01:16:16.583
Свернуть
"Знаете ли Вы, что..."
  • Приквел фильма, хоррор «Коллекционер» (2009) уходит корнями в более мягкий период в кинематографической истории. В частности, в 1967 году Теренс Янг занимался режиссурой фильма «Дождись темноты» (1967) с Аланом Аркином и Одри Хепберн в главных ролях. Сильное влияние оказало новаторское напряжение этого триллера. Хепберн сыграла слепую женщину, терроризируемую тремя бандитами искавшими куклу наполненную героином, которая, по их мнению, находилась в ее апартаментах. Из уважения к фильму «Дождись темноты» (1967) сценаристы даже дали главному персонажу имя Аркин, в честь Алана Аркина, а героиню Елену наделили нарушениями слуха.
  • Что касается придумывания сложных механизмов, которые маньяк Коллекционер использует, чтобы калечить свою жертву, тут создатели фильма использовали свой опыт от франшизы «Пила».
  • Большинство сцен на улице были сняты в Атланте, которая так же является местом, где находится вымышленный «Argento Hotel» (в основе названия легендарный режиссер фильмов-ужасов), бывший интернат, который служил логовом Коллекционера.
    Большинство сцен в помещениях, в том числе сцены в больнице, были сняты в «CBS Studio Center» в Лос-Анджелесе. Данстэн отметил, что благодаря исполнительному продюсеру Тому Лузу (известен по фильму «Джиперс Криперс» (2001)) бюджет фильма был потрачен с наибольшей эффективностью.
Свернуть
Скриншоты

Изображение

Изображение

Изображение

Изображение
Свернуть
Не в сети
Профиль  
Начать новую темуОтветить на тему  [ 1 сообщение ] 
Вы не можете начинать темы
Вы не можете отвечать на сообщения
Вы не можете редактировать свои сообщения
Вы не можете удалять свои сообщения