Правила форума

  • В этом разделе создание новых тем Запрещено.
  • Для создания новых тем пользуйтесь Корневым разделом DVD и HD фильмы.
Начать новую темуОтветить на тему  [ Сообщений: 4 ] 
Торрент файл
Размер: 9.86 GB • Зарегистрирован: 3 года 10 месяцев • Статус: Проверено
Скачан: 209 раз • Желающих скачать: 0 • Поблагодарили: 48 раз
 Раздают: 0  |  0 KB/s  ]   Качают: 0  |  0 KB/s  ] 
 Полного источника не было 1 год 1 месяц 
Сообщения
 Добавлено: 2013-01-26 18:02
Аватара пользователя
Стаж: 9 лет 1 месяц
Сообщений: 8018
Спасибок: 122267
Лайков: 1194
Коллекционер 2 / The Collection 2

«Не попади в его коллекцию»

Изображение


Год выпуска: 2012
Страна: Изображение США
Жанр: ужасы, боевик, триллер
Продолжительность: 01:21:38
Субтитры: Русские, румынские
Перевод: Профессиональный (полное дублирование)[лицензия]


Режиссёр: Маркус Данстэн
Сценарист: Патрик Мелтон, Маркус Данстэн
Продюсер: Бретт Форбс, Мики Лиделл, Джули Ричардсон
Оператор: Сэм МакКёрди
Композитор: Чарли Клаузер

В ролях: Джош Стюарт, Эмма Фитцпатрик, Кристофер МакДональд, Ли Тергесен, Тим Гриффин, Андре Ройо, Рэндолл Арчер, Шеннон Кэйн, Брэндон, Молале, Эрин Вэй

Описание: Бывалому медвежатнику Аркину чудесным образом удалось выбраться из ловушек, расставленных по дому загадочным маньяком Коллекционером. Аркин был уверен, что он никогда в жизни больше не встретится с Коллекциoнером, но cудьба распоряжается иначе.

Изображение Изображение

Качество: BDRip (1080p)
Формат: Matroska
Видео: MPEG-4 AVC, 13.9 Мбит/с, 1920x804, 24.000 Кадр/с
Аудио №1: Русский (DTS, 6 ch, 1510 Кбит/с)
Аудио №2: Английский (DTS, 6 ch, 1510 Кбит/с)

MediaInfo
Общее
Уникальный идентификатор : 242732491951639489552406371864630193101 (0xB69C93D53D880354B1C980CD743EEBCD)
Полное имя : H:\The.Collection.2012.1080p.DTS.x264.Rus.Eng.nntt.org.mkv
Формат : Matroska
Версия формата : Version 2
Размер файла : 9,86 Гбайт
Продолжительность : 1 ч. 21 м.
Общий поток : 17,3 Мбит/сек
Название фильма : The.Collection.2012.1080p.DTS.x264-playHD
Дата кодирования : UTC 2013-01-26 10:56:22
Программа кодирования : mkvmerge v4.9.1 ('Ich will') built on Jul 11 2011 23:53:15
Библиотека кодирования : libebml v1.2.1 + libmatroska v1.1.1

Видео
Идентификатор : 1
Формат : AVC
Формат/Информация : Advanced Video Codec
Профиль формата : High@L4.1
Параметр CABAC формата : Да
Параметр ReFrames формата : 5 кадров
Идентификатор кодека : V_MPEG4/ISO/AVC
Продолжительность : 1 ч. 21 м.
Битрейт : 13,9 Мбит/сек
Ширина : 1920 пикселей
Высота : 804 пикселя
Соотношение сторон : 2,40:1
Режим частоты кадров : Постоянный
Частота кадров : 24,000 кадра/сек
Цветовое пространство : YUV
Субдискретизация насыщенности : 4:2:0
Битовая глубина : 8 бит
Тип развёртки : Прогрессивная
Бит/(Пиксели*Кадры) : 0.376
Размер потока : 7,94 Гбайт (81%)
Библиотека кодирования : x264 core 129 r2245 bc13772
Настройки программы : cabac=1 / ref=5 / deblock=1:-3:-3 / analyse=0x3:0x113 / me=umh / subme=7 / psy=1 / psy_rd=1.00:0.00 / mixed_ref=1 / me_range=24 / chroma_me=1 / trellis=2 / 8x8dct=1 / cqm=0 / deadzone=21,11 / fast_pskip=0 / chroma_qp_offset=-2 / threads=48 / lookahead_threads=8 / sliced_threads=0 / nr=0 / decimate=1 / interlaced=0 / bluray_compat=0 / constrained_intra=0 / bframes=16 / b_pyramid=2 / b_adapt=2 / b_bias=0 / direct=3 / weightb=1 / open_gop=0 / weightp=2 / keyint=250 / keyint_min=24 / scenecut=40 / intra_refresh=0 / rc_lookahead=40 / rc=crf / mbtree=1 / crf=16.5 / qcomp=0.60 / qpmin=0 / qpmax=69 / qpstep=4 / ip_ratio=1.40 / aq=2:1.00
Язык : English
Default : Да
Forced : Нет

Аудио #1
Идентификатор : 2
Формат : DTS
Формат/Информация : Digital Theater Systems
Режим : 16
Параметр Endianness формата : Big
Идентификатор кодека : A_DTS
Продолжительность : 1 ч. 21 м.
Вид битрейта : Постоянный
Битрейт : 1509 Кбит/сек
Каналы : 6 каналов
Расположение каналов : Front: L C R, Side: L R, LFE
Частота : 48,0 КГц
Битовая глубина : 16 бит
Метод сжатия : С потерями
Размер потока : 881 Мбайт (9%)
Заголовок : DTS 5.1 @ 1536 kbps
Язык : Russian
Default : Да
Forced : Да

Аудио #2
Идентификатор : 3
Формат : DTS
Формат/Информация : Digital Theater Systems
Режим : 16
Параметр Endianness формата : Big
Идентификатор кодека : A_DTS
Продолжительность : 1 ч. 21 м.
Вид битрейта : Постоянный
Битрейт : 1509 Кбит/сек
Каналы : 6 каналов
Расположение каналов : Front: L C R, Side: L R, LFE
Частота : 48,0 КГц
Битовая глубина : 16 бит
Метод сжатия : С потерями
Размер потока : 881 Мбайт (9%)
Заголовок : DTS 5.1 @ 1536 kbps
Язык : English
Default : Нет
Forced : Нет

Текст #1
Идентификатор : 4
Формат : UTF-8
Идентификатор кодека : S_TEXT/UTF8
Идентификатор кодека/Информация : UTF-8 Plain Text
Язык : Romanian
Default : Да
Forced : Нет

Текст #2
Идентификатор : 5
Формат : UTF-8
Идентификатор кодека : S_TEXT/UTF8
Идентификатор кодека/Информация : UTF-8 Plain Text
Язык : Russian
Default : Нет
Forced : Нет

Меню
00:00:00.000 : en:00:00:00.000
00:06:29.375 : en:00:06:29.375
00:15:08.875 : en:00:15:08.875
00:22:12.791 : en:00:22:12.791
00:30:06.958 : en:00:30:06.958
00:37:45.750 : en:00:37:45.750
00:45:24.500 : en:00:45:24.500
00:53:11.875 : en:00:53:11.875
00:58:20.375 : en:00:58:20.375
01:04:21.833 : en:01:04:21.833
01:10:12.208 : en:01:10:12.208
01:16:16.583 : en:01:16:16.583
Свернуть
Знаете ли вы, что...
Приквел фильма, хоррор «Коллекционер» (2009) уходит корнями в более мягкий период в кинематографической истории. В частности, в 1967 году Теренс Янг занимался режиссурой фильма «Дождись темноты» (1967) с Аланом Аркином и Одри Хепберн в главных ролях. Сильное влияние оказало новаторское напряжение этого триллера. Хепберн сыграла слепую женщину, терроризируемую тремя бандитами искавшими куклу наполненную героином, которая, по их мнению, находилась в ее апартаментах. Из уважения к фильму «Дождись темноты» (1967) сценаристы даже дали главному персонажу имя Аркин, в честь Алана Аркина, а героиню Елену наделили нарушениями слуха.

Что касается придумывания сложных механизмов, которые маньяк Коллекционер использует, чтобы калечить свою жертву, тут создатели фильма использовали свой опыт от франшизы «Пила».

Большинство сцен на улице были сняты в Атланте, которая так же является местом, где находится вымышленный «Argento Hotel» (в основе названия легендарный режиссер фильмов-ужасов), бывший интернат, который служил логовом Коллекционера. Большинство сцен в помещениях, в том числе сцены в больнице, были сняты в «CBS Studio Center» в Лос-Анджелесе. Данстэн отметил, что благодаря исполнительному продюсеру Тому Лузу (известен по фильму «Джиперс Криперс» (2001)) бюджет фильма был потрачен с наибольшей эффективностью.
Свернуть
Скриншоты
Изображение
Изображение
Изображение
Изображение
Изображение
Свернуть


Последний раз редактировалось krazz 2013-01-26 18:13, всего редактировалось 1 раз.
Не в сети
Профиль  
 Добавлено: 2013-01-26 18:07 (спустя 5 минут)
Модератор
Аватара пользователя
Стаж: 8 лет 11 месяцев
Сообщений: 516
Спасибок: 26888
Лайков: 1
Для HD и HQRip-ов необходимы скриншоты в формате PNG, для остальных форматов PNG так же рекомендуется.
Переделайте скриншоты пожалуйста.
Не в сети
Профиль  
 Добавлено: 2013-01-26 18:14 (спустя 6 минут)
Аватара пользователя
Стаж: 9 лет 1 месяц
Сообщений: 8018
Спасибок: 122267
Лайков: 1194
-=Elis=-
поправил :)
Не в сети
Профиль  
 Добавлено: 2013-11-16 12:10 (спустя 9 месяцев)
Аватара пользователя
Стаж: 5 лет 6 месяцев
Возраст: 23
Сообщений: 484
Спасибок: 1403
Лайков: 1
встаньте на раздачу
Не в сети
Профиль  
Начать новую темуОтветить на тему  [ Сообщений: 4 ] 
Вы не можете начинать темы
Вы не можете отвечать на сообщения
Вы не можете редактировать свои сообщения
Вы не можете удалять свои сообщения