Правила форума

  • В этом разделе создание новых тем Запрещено.
  • Для создания новых тем пользуйтесь Корневым разделом DVD и HD фильмы.
Начать новую темуОтветить на тему  [ Сообщений: 7 ] 
Торрент файл
Размер: 12.3 GB • Зарегистрирован: 4 года 11 месяцев • Статус: Проверено
Скачан: 217 раз • Желающих скачать: 0 • Поблагодарили: 47 раз
 Раздают: 0  |  0 KB/s  ]   Качают: 0  |  0 KB/s  ] 
 Полного источника не было 7 месяцев 
Сообщения
 Добавлено: 2011-12-16 11:27
Top-releaser
Аватара пользователя
Стаж: 8 лет 9 месяцев
Сообщений: 479
Спасибок: 20190
Лайков: 16
Коломбиана

Colombiana


«Месть бывает прекрасна»

Изображение


Год выпуска: 2011
Страна: Изображение США, Изображение Франция; Europa Corp., TF1 Films Production
Жанр: Боевик, триллер, драма, криминал
Продолжительность: 01:43:27
Перевод: Профессиональный (дублированный) [Лицензия] + Оригинал
Субтитры: Русские, английскиe


Режиссёр: Оливье Мегатон / Olivier Megaton

В ролях: Зои Салдана, Амендла Стенберг, Майкл Вартан, Клифф Кёртис, Каллум Блу, Жорди Молья, Макс Мартини, Ленни Джеймс, Грэм МакТавиш, Моника Акоста


Описание: Кат было всего 9, когда на ее глазах неизвестные жестоко убили ее родителей. Девочка сумела убежать от бандитов и найти убежище в Чикаго у своего дяди. Теперь Кат профессиональный убийца. Во что бы то ни стало она должна распутать клубок давнего преступления и отомстить за смерть родителей. Все следы ведут к колумбийскому наркобарону Дону Лусиа. Единственная нить, соединяющая девушку-убийцу с миром обычных людей — это ее возлюбленный, который не догадывается, чем на самом деле занимается его подружка…


Качество: BDRip 1080p R5
Формат: MKV

Видео: AVC, 1920 x 816 (2.353) at 25.000 fps, 14,0 Мбит/сек
Аудио 1: DTS 48000Hz 6ch 1510 Kbps [Дубляж]
Аудио 2: DTS 48000Hz 6ch 1510 Kbps [Оригинал]

Раздача: Изображение

Изображение

Изображение
MediaInfo

Общее
Уникальный идентификатор : 206697270423766131401539153963070204565 (0x9B80723DA6B9ADC4AD986F2AF58F2A95)
Полное имя : C:\Users\Домашний\Desktop\Kolombiana(Teatralnaja.versija).2011.[nntt](1080p).mkv
Формат : Matroska
Размер файла : 12,3 Гбайт
Продолжительность : 1 ч. 43 м.
Общий поток : 17,0 Мбит/сек
Название фильма : --SCHUMAHER--
Дата кодирования : UTC 2011-12-15 20:06:00
Программа кодирования : mkvmerge v5.1.0 ('And so it goes') built on Nov 28 2011 23:58:28
Библиотека кодирования : libebml v1.2.3 + libmatroska v1.3.0

Видео
Идентификатор : 1
Формат : AVC
Формат/Информация : Advanced Video Codec
Профиль формата : High@L4.1
Параметр CABAC формата : Да
Параметр ReFrames формата : 5 кадры
Идентификатор кодека : V_MPEG4/ISO/AVC
Продолжительность : 1 ч. 43 м.
Битрейт : 14,0 Мбит/сек
Ширина : 1920 пикс.
Высота : 816 пикс.
Соотношение сторон : 2,35:1
Частота кадров : 25,000 кадр/сек
Цветовое пространство : YUV
Подвыборка цветности : 4:2:0
Битовая глубина : 8 бит
Тип развёртки : Прогрессивная
Бит/(Пиксели*Кадры) : 0.357
Размер потока : 9,87 Гбайт (80%)
Библиотека кодирования : x264 core 116 r2074 2641b9e
Настройки программы : cabac=1 / ref=5 / deblock=1:-3:-3 / analyse=0x3:0x113 / me=umh / subme=10 / psy=1 / psy_rd=1.00:0.10 / mixed_ref=1 / me_range=32 / chroma_me=1 / trellis=2 / 8x8dct=1 / cqm=0 / deadzone=21,11 / fast_pskip=0 / chroma_qp_offset=-5 / threads=9 / sliced_threads=0 / nr=0 / decimate=0 / interlaced=0 / bluray_compat=0 / constrained_intra=0 / bframes=6 / b_pyramid=2 / b_adapt=2 / b_bias=0 / direct=3 / weightb=1 / open_gop=0 / weightp=2 / keyint=250 / keyint_min=25 / scenecut=40 / intra_refresh=0 / rc_lookahead=40 / rc=2pass / mbtree=1 / bitrate=14000 / ratetol=1.0 / qcomp=0.60 / qpmin=0 / qpmax=69 / qpstep=4 / cplxblur=20.0 / qblur=0.5 / vbv_maxrate=40000 / vbv_bufsize=40000 / nal_hrd=none / ip_ratio=1.40 / aq=2:0.80
Язык : English

Аудио #1
Идентификатор : 2
Формат : DTS
Формат/Информация : Digital Theater Systems
Идентификатор кодека : A_DTS
Продолжительность : 1 ч. 43 м.
Вид битрейта : Постоянный
Битрейт : 1510 Кбит/сек
Канал(ы) : 6 канала(ов)
Расположение каналов : Front: L C R, Side: L R, LFE
Частота : 48,0 КГц
Битовая глубина : 24 бит
Метод сжатия : С потерями
Размер потока : 1,09 Гбайт (9%)
Язык : Russian

Аудио #2
Идентификатор : 3
Формат : DTS
Формат/Информация : Digital Theater Systems
Идентификатор кодека : A_DTS
Продолжительность : 1 ч. 43 м.
Вид битрейта : Постоянный
Битрейт : 1510 Кбит/сек
Канал(ы) : 6 канала(ов)
Расположение каналов : Front: L C R, Side: L R, LFE
Частота : 48,0 КГц
Битовая глубина : 16 бит
Метод сжатия : С потерями
Размер потока : 1,09 Гбайт (9%)
Язык : English

Текст #1
Идентификатор : 4
Формат : UTF-8
Идентификатор кодека : S_TEXT/UTF8
Идентификатор кодека/Информация : UTF-8 Plain Text
Язык : Russian

Текст #2
Идентификатор : 5
Формат : UTF-8
Идентификатор кодека : S_TEXT/UTF8
Идентификатор кодека/Информация : UTF-8 Plain Text
Язык : English

Меню
00:00:00.000 : en:00:00:00.000
00:07:21.280 : en:00:07:21.280
00:17:25.360 : en:00:17:25.360
00:24:36.440 : en:00:24:36.440
00:35:44.520 : en:00:35:44.520
00:44:49.120 : en:00:44:49.120
00:50:50.280 : en:00:50:50.280
00:59:44.360 : en:00:59:44.360
01:09:40.480 : en:01:09:40.480
01:17:51.080 : en:01:17:51.080
01:24:42.840 : en:01:24:42.840
01:36:33.600 : en:01:36:33.600

Свернуть
Скриншоты

Изображение
Изображение
Изображение
Изображение
Изображение
Свернуть
_________________
Изображение
Изображение
Не в сети
Профиль  
 Добавлено: 2011-12-16 13:50 (спустя 2 часа 23 минуты)
Top-releaser
Аватара пользователя
Стаж: 7 лет 3 месяца
Возраст: 25
Сообщений: 1036
Спасибок: 2694
Лайков: 9
Джокер подсоблю с раздачей ;)
Не в сети
Профиль  
 Добавлено: 2011-12-16 13:53 (спустя 2 минуты)
Top-releaser
Аватара пользователя
Стаж: 8 лет 9 месяцев
Сообщений: 479
Спасибок: 20190
Лайков: 16
FoTP :co_ol:
_________________
Изображение
Изображение
Не в сети
Профиль  
 Добавлено: 2011-12-16 17:26 (спустя 3 часа)
Стаж: 5 лет 3 месяца
Сообщений: 150
Лайков: 2
Фильм класс!
Не в сети
Профиль  
 Добавлено: 2011-12-19 01:45 (спустя 2 дня 8 часов)
Аватара пользователя
Стаж: 8 лет 10 месяцев
Сообщений: 1170
Спасибок: 1294
Лайков: 7
почему театральная версия?
Не в сети
Профиль  
 Добавлено: 2012-01-09 07:39 (спустя 21 день)
Аватара пользователя
Стаж: 8 лет 11 месяцев
Возраст: 27
Сообщений: 721
Спасибок: 5528
Лайков: 1
приколный фильм :)
_________________
Изображение
Не в сети
Профиль  
 Добавлено: 2012-01-09 20:58 (спустя 13 часов)
Стаж: 5 лет 3 месяца
Сообщений: 150
Лайков: 2
Сосочка прикольная играет!
Не в сети
Профиль  
Начать новую темуОтветить на тему  [ Сообщений: 7 ] 
Вы не можете начинать темы
Вы не можете отвечать на сообщения
Вы не можете редактировать свои сообщения
Вы не можете удалять свои сообщения