Правила форума

  • В этом разделе создание новых тем Запрещено.
  • Для создания новых тем пользуйтесь Корневым разделом DVD и HD фильмы.
Начать новую темуОтветить на тему  [ 1 сообщение ] 
Торрент файл
Размер: 5.09 GB • Зарегистрирован: 2 года 10 месяцев • Статус: T Временный релиз
Скачан: 2 раза • Желающих скачать: 0 • Поблагодарили: 0 раз
 Раздают: 0  |  0 KB/s  ]   Качают: 0  |  0 KB/s  ] 
 Полного источника не было 1 год 10 месяцев 
Сообщения
 Добавлено: 2014-02-05 15:33
Книголюб
Аватара пользователя
Стаж: 7 лет 2 месяца
Сообщений: 2823
Спасибок: 48825
Лайков: 73
Команда Орхеймов
Kompani Orheim

Изображение


Год выпуска: 2012
Страна: Норвегия
Жанр: драма
Продолжительность: 01:39:27
Перевод: Любительский (одноголосый закадровый) [Сергей Синица]

Режиссёр: Арилд Андресен
В ролях: Кристоффер Йонер, Сесиль А. Мосли, Рольф Кристиан Ларсен, Тоне Беата Мостраум, Андреас Каппелен, Пол Кваммен
Описание: Если телефон звонит ранним утром, ничего хорошего не ждите — это аксиома. Рыжеволосого Ярле Клеппа поднял с постели звонок матери, сообщившей о смерти отца. Путь из Осло до родного Ставангера не близок — времени для того, чтобы вспомнить, каким он, отец, был, достаточно. И воспоминания эти приятными не назовёшь.

Терье Орхейм — патриот, таскавший сына по местам боевой славы — к каменной гряде «зубы Гитлера», где немцы получили отпор, или в Веморк, где сопротивление уничтожило завод для производства тяжёлой воды и сорвало план нацистов по созданию ядерной бомбы. Человек, веривший в возможность создать не просто семью, но компанию, команду единомышленников. И алкаш, распускающий руки. Консерватор, запрещающий Ярле дружить с однокашником-коммунистом и сражаться с анти-иммигрантской лигой. Фигляр и мелкий домашний садист.
Мировая премьера: 29 января 2012
Изображение 7.42563

Качество: BDRip 720p
Формат: MKV
Видео кодек: H.264
Аудио кодек: AC3 (Dolby Digital)
Видео: 1280x536 25fps 6 500 Kbps
Аудио #1: Russian: 48000Hz stereo 192 Kbps
Аудио #2: Norwegian:48000Hz 6ch 640 Kbps

MediaInfo
General
Unique ID : 251421173465501033079105612823620751018 (0xBD25F4E7DE1A2C22AC636D5CCB200EAA)
Complete name : K:\Torrent\Kompani Orheim.mkv
Format : Matroska
Format version : Version 4 / Version 2
File size : 5.09 GiB
Duration : 1h 39mn
Overall bit rate : 7 334 Kbps
Movie name : Release Group CINEMANIA
Encoded date : UTC 2014-02-03 15:27:08
Writing application : mkvmerge v6.7.0 ('Back to the Ground') 64bit built on Jan 8 2014 15:10:52
Writing library : libebml v1.3.0 + libmatroska v1.4.1

Video
ID : 1
Format : AVC
Format/Info : Advanced Video Codec
Format profile : High@L4.1
Format settings, CABAC : Yes
Format settings, ReFrames : 12 frames
Codec ID : V_MPEG4/ISO/AVC
Duration : 1h 39mn
Bit rate : 6 500 Kbps
Width : 1 280 pixels
Height : 536 pixels
Display aspect ratio : 2.40:1
Frame rate : 25.000 fps
Color space : YUV
Chroma subsampling : 4:2:0
Bit depth : 8 bits
Scan type : Progressive
Bits/(Pixel*Frame) : 0.379
Stream size : 4.42 GiB (87%)
Title : Release Group CINEMANIA
Writing library : x264 core 125 r2200 999b753
Encoding settings : cabac=1 / ref=12 / deblock=1:-3:-3 / analyse=0x3:0x133 / me=umh / subme=10 / psy=1 / psy_rd=1.10:0.00 / mixed_ref=1 / me_range=24 / chroma_me=1 / trellis=2 / 8x8dct=1 / cqm=0 / deadzone=21,11 / fast_pskip=1 / chroma_qp_offset=-2 / threads=12 / lookahead_threads=2 / sliced_threads=0 / nr=0 / decimate=1 / interlaced=0 / bluray_compat=0 / constrained_intra=0 / bframes=8 / b_pyramid=2 / b_adapt=2 / b_bias=0 / direct=3 / weightb=1 / open_gop=0 / weightp=2 / keyint=250 / keyint_min=25 / scenecut=40 / intra_refresh=0 / rc_lookahead=60 / rc=2pass / mbtree=1 / bitrate=6500 / ratetol=1.0 / qcomp=0.60 / qpmin=0 / qpmax=69 / qpstep=4 / cplxblur=20.0 / qblur=0.5 / vbv_maxrate=50000 / vbv_bufsize=50000 / nal_hrd=none / ip_ratio=1.40 / aq=1:0.70
Language : Norwegian
Default : Yes
Forced : No

Audio #1
ID : 2
Format : AC-3
Format/Info : Audio Coding 3
Mode extension : CM (complete main)
Codec ID : A_AC3
Duration : 1h 39mn
Bit rate mode : Constant
Bit rate : 192 Kbps
Channel(s) : 2 channels
Channel positions : Front: L R
Sampling rate : 48.0 KHz
Bit depth : 16 bits
Compression mode : Lossy
Stream size : 137 MiB (3%)
Title : Сергей Синица
Language : Russian
Default : Yes
Forced : Yes

Audio #2
ID : 3
Format : AC-3
Format/Info : Audio Coding 3
Mode extension : CM (complete main)
Codec ID : A_AC3
Duration : 1h 39mn
Bit rate mode : Constant
Bit rate : 640 Kbps
Channel(s) : 6 channels
Channel positions : Front: L C R, Side: L R, LFE
Sampling rate : 48.0 KHz
Bit depth : 16 bits
Compression mode : Lossy
Stream size : 455 MiB (9%)
Language : Norwegian
Default : No
Forced : No

Text #1
ID : 4
Format : UTF-8
Codec ID : S_TEXT/UTF8
Codec ID/Info : UTF-8 Plain Text
Title : creo140
Language : Russian
Default : No
Forced : No

Text #2
ID : 5
Format : UTF-8
Codec ID : S_TEXT/UTF8
Codec ID/Info : UTF-8 Plain Text
Language : English
Default : No
Forced : No

Menu
00:00:00.000 : :1
00:07:06.000 : :2
00:12:11.800 : :3
00:18:40.800 : :4
00:25:50.400 : :5
00:31:37.200 : :6
00:37:03.000 : :7
00:45:05.800 : :8
00:51:29.800 : :9
00:56:48.600 : :10
01:01:30.000 : :11
01:07:45.600 : :12
01:14:15.600 : :13
01:18:44.400 : :14
01:24:28.800 : :15
01:35:16.800 : :16


Свернуть


Скриншоты
Изображение
Изображение
Изображение
Свернуть
Не в сети
Профиль  
Начать новую темуОтветить на тему  [ 1 сообщение ] 
Вы не можете начинать темы
Вы не можете отвечать на сообщения
Вы не можете редактировать свои сообщения
Вы не можете удалять свои сообщения