Правила форума

  • В этом разделе создание новых тем Запрещено.
  • Для создания новых тем пользуйтесь Корневым разделом DVD и HD фильмы.
Начать новую темуОтветить на тему  [ 1 сообщение ] 
Торрент файл
Размер: 17.55 GB • Зарегистрирован: 3 года 8 месяцев • Статус: Проверено
Скачан: 15 раз • Желающих скачать: 0 • Поблагодарили: 11 раз
 Раздают: 0  |  0 KB/s  ]   Качают: 0  |  0 KB/s  ] 
 Полного источника не было 2 года 3 месяца 
Сообщения
 Добавлено: 2013-03-30 07:52
Аватара пользователя
Стаж: 6 лет 4 месяца
Сообщений: 164
Спасибок: 151
Лайков: 9
Коммандос / Commando

Изображение


Год выпуска: 1985
Страна: США
Слоган: «Somewhere... somehow... someone's going to pay!»
Жанр: боевик, триллер
Продолжительность: 01:30:16
Перевод: Профессиональный (многоголосый закадровый)
Субтитры: Русские, Русские, Английские

Режиссёр: Марк Л. Лестер / Mark L. Lester
Сценарист: Стивен Е. де Соуза / Steven E. de Souza, Джозеф Лоуб III / Jeph Loeb, Мэтью Уайсмен / Matthew Weisman
Продюсер: Стефани Броди / Stephanie Brody, Роберт Косберг / Robert Kosberg, Джозеф Лоуб III / Jeph Loeb, Джоэл Силвер / Joel Silver, Мэтью Уайсмен / Matthew Weisman
Оператор: Мэтью Ф. Леонетти / Matthew F. Leonetti
Композитор: Джеймс Хорнер / James Horner
В ролях: Арнольд Шварценеггер (John Matrix), Рей Дон Чонг (Cindy), Дэн Хедайя (Arius), Вернон Уэллс (Bennett), Джеймс Олсон (Gen. Franklin Kirby), Дэвид Патрик Келли (Sully), Алисса Милано (Jenny Matrix), Билл Дьюк (Cooke), Дрю Снайдер (Lawson), Шарон Уайатт (Leslie), Майкл Делано (Forrestal), Боб Майнор (Jackson)
Описание: Полковник в отставке Джон Матрикс - бывший командир спецотряда, участвовавшего в секретных операциях на Ближнем Востоке, СССР и Центральной Америке. Находясь в отличной физической форме и владея знаниями, которые делают его супер-солдатом, полковник в отставке Джон Матрикс живет под другим именем в большом доме со своей дочерью вдали от города.
Но спокойную жизнь нарушает его старый враг, похищая 11-ти летнюю дочь полковника. И вспыхнувший ненавистью Джон Матрикс безжалостно убивает всех, кто становится у него на пути к спасению любимой дочери...
Рейтинг MPAA: Рейтинг R (Подростки до 17 лет допускаются на фильм только в сопровождении одного из родителей)
Изображение
Изображение

Качество: BDRip 1080p
Формат: MKV
Видео кодек: AVC
Аудио кодек: AC3 (Dolby Digital), DTS
Видео: 1916x1040 (16:9), 17300 kbps, 23,976 fps, 0,362 bpp
Аудио #1: русский /; AC3 /; 2.0 /; 48 kHz /; 192 kbps /; 16 bit; [Многоголосый, R5]
Аудио #2: русский /; DTS /; 5.1 /; 48 kHz /; 1510 kbps /; 24 bit;[Многоголосый, Киномания]
Аудио #3: русский /; DTS /; 5.1 /; 48 kHz /; 1510 kbps /; 24 bit;[Многоголосый, ОРТ]
Аудио #4: русский /; DTS /; 5.1 /; 48 kHz /; 1510 kbps /; 24 bit;[Двухголосый, П. Гланц и И. Королева]
Аудио #5: русский /; DTS /; 5.1 /; 48 kHz /; 1510 kbps /; 24 bit;[Одноголосый, А.Гаврилов]
Аудио #6: русский /; DTS /; 5.1 /; 48 kHz /; 1510 kbps /; 24 bit;[Одноголосый, Гоблин - Полный Пэ]
Аудио #7: русский /; AC3 /; 2.0 /; 48 kHz /; 192 kbps /; 16 bit;[Одноголосый, В. Горчаков]
Аудио #8: русский /; AC3 /; 2.0 /; 48 kHz /; 192 kbps /; 16 bit;[Одноголосый, Ю. Толбин]
Аудио #9: русский /; AC3 /; 5.1 /; 48 kHz /; 448 kbps /; 16 bit; [Одноголосый, Б. Федоров]
Аудио #10: украинский /; AC3 /; 2.0 /; 48 kHz /; 192 kbps /; 16 bit;[Многоголосый, 1+1/ICTV]
Аудио #11: английский /; DTS /; 5.1 /; 48 kHz /; 1510 kbps /; 24 bit
Субтитры: Русские (R5), Русские (Пучков), Английские.
Навигация по главам: есть


Знаете ли вы, что...
Песня, звучащая в концовке, - это We Fight for Love (иногда упоминается ещё как Somewhere, Somehow, Someone`s Gotta Pay) группы Power Station.
Изначально предполагалось, что фильм будет снимать режиссёр Джон МакТирнан, но он отказался. А спустя два года, в 1987, он согласился снять фильм «Хищник» также со Шварценеггером в главной роли.
Просторный супермаркет Sherman Oaks Galleria, в котором как Тарзан летал герой Шварценеггера, потом будет снят и в другом его фильме - в «Терминаторе 2».
Актёр Вернон Уэллс (Беннетт) и сам изначально пробовался на роль полковника Мэтрикса.
Дом, в котором происходит финальная перестрелка между Мэтриксом и Ариусом, - это тот же дом, в котором снималась заключительная перестрелка между Фоли и Мэйтландом в фильме «Полицейский из Беверли-Хиллз».
В качестве оператора радара снялся известный в будущем актёр Билл Пэкстон.
К фильму задумывался сиквел, но так и не был снят из-за незаинтересованности Шварценеггера. Сценарий несостоявшегося сиквела был переписан и превратился в фильм «Крепкий орешек», снятый в 1988 году и подаривший миру нового супергероя (Брюс Уиллис).
Из режиссёрской версии картины становится известно, что мать Дженни умерла при родах.
Арнольд согласился исполнить главную роль, по его словам это был первый сценарий со времён успеха «Терминатора», где ему не предлагали вновь стать роботом.
Арнольд стремился самостоятельно исполнять все трюки, не используя дублёра, даже в известной сцене, где на скорости 65 миль в час приходилось висеть, держась за шасси самолёта. Цена? Выбитое плечо и несколько швов на руке и локте.
Вернон Уэллс вне съёмочной площадки был очень обаятельным и приятным парнем, тем более удивительным выглядело его перевоплощение в изувера Беннета. Однажды, после съёмок сцены драки на ножах, Лестер сказал следующее: «Закончили. И не подпускайте ко мне Беннета».
По словам Уэллса, костюмеры нашли ему одежду на несколько размеров меньше, дабы он выглядел ещё более мерзко. Сам Вернон шуточно называет Беннета «Фредди Меркьюрри на стероидах».
За время фильма главный герой успевает поменять часы с электронных на механические со стрелками, а в сцене прибытия на остров в лодке, за секунду, меняет трусы с серых на черные.
Свернуть
MediaInfo
Код:
General
Unique ID : 254162435421399036486605314906904397664 (0xBF35E78E1342318FA2A5C95CB0A10760)
Complete name : Commando.1985.1080p.BluRay.9xRus.Ukr.Eng.HDCLUB-Skazhutin.mkv
Format : Matroska
Format version : Version 2
File size : 17.5 GiB
Duration : 1h 30mn
Overall bit rate : 27.8 Mbps
Movie name : Commando (1985) - Release for HDCLUB by Skazhutin
Encoded date : UTC 2012-11-20 07:37:09
Writing application : mkvmerge v5.8.0 ('No Sleep / Pillow') built on Sep 2 2012 15:37:04
Writing library : libebml v1.2.3 + libmatroska v1.3.0
Attachment : Yes

Video
ID : 1
Format : AVC
Format/Info : Advanced Video Codec
Format profile : High@L4.1
Format settings, CABAC : Yes
Format settings, ReFrames : 4 frames
Codec ID : V_MPEG4/ISO/AVC
Duration : 1h 30mn
Bit rate : 17.3 Mbps
Width : 1 916 pixels
Height : 1 040 pixels
Display aspect ratio : 1.85:1
Frame rate mode : Constant
Frame rate : 23.976 fps
Color space : YUV
Chroma subsampling : 4:2:0
Bit depth : 8 bits
Scan type : Progressive
Bits/(Pixel*Frame) : 0.362
Stream size : 10.7 GiB (61%)
Title : Release for HDCLUB
Writing library : x264 core 128 r2216kMod 198a7ea
Encoding settings : cabac=1 / ref=4 / deblock=1:-2:-2 / analyse=0x3:0x113 / me=umh / subme=11 / psy=1 / fade_compensate=0.00 / psy_rd=1.00:0.25 / mixed_ref=1 / me_range=64 / chroma_me=1 / trellis=2 / 8x8dct=1 / cqm=0 / deadzone=6,6 / fast_pskip=0 / chroma_qp_offset=-4 / threads=12 / lookahead_threads=2 / sliced_threads=0 / nr=0 / decimate=0 / interlaced=0 / bluray_compat=0 / constrained_intra=0 / bframes=11 / b_pyramid=2 / b_adapt=2 / b_bias=0 / direct=3 / weightb=1 / open_gop=0 / weightp=2 / keyint=250 / keyint_min=23 / scenecut=40 / intra_refresh=0 / rc_lookahead=240 / rc=2pass / mbtree=1 / bitrate=17300 / ratetol=1.0 / qcomp=0.80 / qpmin=0 / qpmax=69 / qpstep=4 / cplxblur=20.0 / qblur=0.5 / vbv_maxrate=50000 / vbv_bufsize=62500 / nal_hrd=none / ip_ratio=1.10 / aq=1:0.50
Language : English
Default : Yes
Forced : No
Matrix coefficients : BT.709

Audio #1
ID : 2
Format : AC-3
Format/Info : Audio Coding 3
Mode extension : CM (complete main)
Format settings, Endianness : Big
Codec ID : A_AC3
Duration : 1h 30mn
Bit rate mode : Constant
Bit rate : 192 Kbps
Channel(s) : 2 channels
Channel positions : Front: L R
Sampling rate : 48.0 KHz
Bit depth : 16 bits
Compression mode : Lossy
Stream size : 124 MiB (1%)
Title : AC3 2.0 @ 192 kbps - Многоголосый, R5
Language : Russian
Default : Yes
Forced : No

Audio #2
ID : 3
Format : DTS
Format/Info : Digital Theater Systems
Mode : 16
Format settings, Endianness : Big
Codec ID : A_DTS
Duration : 1h 30mn
Bit rate mode : Constant
Bit rate : 1 509 Kbps
Channel(s) : 6 channels
Channel positions : Front: L C R, Side: L R, LFE
Sampling rate : 48.0 KHz
Bit depth : 24 bits
Compression mode : Lossy
Stream size : 974 MiB (5%)
Title : DTS 5.1 @ 1536 kbps - Многоголосый, Киномания
Language : Russian
Default : No
Forced : No

Audio #3
ID : 4
Format : DTS
Format/Info : Digital Theater Systems
Mode : 16
Format settings, Endianness : Big
Codec ID : A_DTS
Duration : 1h 30mn
Bit rate mode : Constant
Bit rate : 1 509 Kbps
Channel(s) : 6 channels
Channel positions : Front: L C R, Side: L R, LFE
Sampling rate : 48.0 KHz
Bit depth : 24 bits
Compression mode : Lossy
Stream size : 974 MiB (5%)
Title : DTS 5.1 @ 1536 kbps - Многоголосый, ОРТ
Language : Russian
Default : No
Forced : No

Audio #4
ID : 5
Format : DTS
Format/Info : Digital Theater Systems
Mode : 16
Format settings, Endianness : Big
Codec ID : A_DTS
Duration : 1h 30mn
Bit rate mode : Constant
Bit rate : 1 509 Kbps
Channel(s) : 6 channels
Channel positions : Front: L C R, Side: L R, LFE
Sampling rate : 48.0 KHz
Bit depth : 24 bits
Compression mode : Lossy
Stream size : 974 MiB (5%)
Title : DTS 5.1 @ 1536 kbps - Двухголосый, П. Гланц и И. Королева
Language : Russian
Default : No
Forced : No

Audio #5
ID : 6
Format : DTS
Format/Info : Digital Theater Systems
Mode : 16
Format settings, Endianness : Big
Codec ID : A_DTS
Duration : 1h 30mn
Bit rate mode : Constant
Bit rate : 1 509 Kbps
Channel(s) : 6 channels
Channel positions : Front: L C R, Side: L R, LFE
Sampling rate : 48.0 KHz
Bit depth : 24 bits
Compression mode : Lossy
Stream size : 974 MiB (5%)
Title : DTS 5.1 @ 1536 kbps - Одноголосый, А. Гаврилов
Language : Russian
Default : No
Forced : No

Audio #6
ID : 7
Format : DTS
Format/Info : Digital Theater Systems
Mode : 16
Format settings, Endianness : Big
Codec ID : A_DTS
Duration : 1h 30mn
Bit rate mode : Constant
Bit rate : 1 509 Kbps
Channel(s) : 6 channels
Channel positions : Front: L C R, Side: L R, LFE
Sampling rate : 48.0 KHz
Bit depth : 24 bits
Compression mode : Lossy
Stream size : 974 MiB (5%)
Title : DTS 5.1 @ 1536 kbps - Одноголосый, Д. Пучков
Language : Russian
Default : No
Forced : No

Audio #7
ID : 8
Format : AC-3
Format/Info : Audio Coding 3
Mode extension : CM (complete main)
Format settings, Endianness : Big
Codec ID : A_AC3
Duration : 1h 30mn
Bit rate mode : Constant
Bit rate : 192 Kbps
Channel(s) : 2 channels
Channel positions : Front: L R
Sampling rate : 48.0 KHz
Bit depth : 16 bits
Compression mode : Lossy
Stream size : 124 MiB (1%)
Title : AC3 2.0 @ 192 kbps - Одноголосый, В. Горчаков
Language : Russian
Default : No
Forced : No

Audio #8
ID : 9
Format : AC-3
Format/Info : Audio Coding 3
Mode extension : CM (complete main)
Format settings, Endianness : Big
Codec ID : A_AC3
Duration : 1h 30mn
Bit rate mode : Constant
Bit rate : 192 Kbps
Channel(s) : 2 channels
Channel positions : Front: L R
Sampling rate : 48.0 KHz
Bit depth : 16 bits
Compression mode : Lossy
Stream size : 124 MiB (1%)
Title : AC3 2.0 @ 192 kbps - Одноголосый, Ю. Толбин
Language : Russian
Default : No
Forced : No

Audio #9
ID : 10
Format : AC-3
Format/Info : Audio Coding 3
Mode extension : CM (complete main)
Format settings, Endianness : Big
Codec ID : A_AC3
Duration : 1h 30mn
Bit rate mode : Constant
Bit rate : 448 Kbps
Channel(s) : 6 channels
Channel positions : Front: L C R, Side: L R, LFE
Sampling rate : 48.0 KHz
Bit depth : 16 bits
Compression mode : Lossy
Stream size : 289 MiB (2%)
Title : AC3 5.1 @ 448 kbps - Одноголосый, Б. Федоров
Language : Russian
Default : No
Forced : No

Audio #10
ID : 11
Format : AC-3
Format/Info : Audio Coding 3
Mode extension : CM (complete main)
Format settings, Endianness : Big
Codec ID : A_AC3
Duration : 1h 30mn
Bit rate mode : Constant
Bit rate : 192 Kbps
Channel(s) : 2 channels
Channel positions : Front: L R
Sampling rate : 48.0 KHz
Bit depth : 16 bits
Compression mode : Lossy
Stream size : 124 MiB (1%)
Title : AC3 2.0 @ 192 kbps - Многоголосый, 1+1/ICTV
Language : Ukrainian
Default : No
Forced : No

Audio #11
ID : 12
Format : DTS
Format/Info : Digital Theater Systems
Mode : 16
Format settings, Endianness : Big
Codec ID : A_DTS
Duration : 1h 30mn
Bit rate mode : Constant
Bit rate : 1 509 Kbps
Channel(s) : 6 channels
Channel positions : Front: L C R, Side: L R, LFE
Sampling rate : 48.0 KHz
Bit depth : 24 bits
Compression mode : Lossy
Stream size : 974 MiB (5%)
Title : DTS 5.1 @ 1536 kbps
Language : English
Default : No
Forced : No

Text #1
ID : 13
Format : UTF-8
Codec ID : S_TEXT/UTF8
Codec ID/Info : UTF-8 Plain Text
Title : R5
Language : Russian
Default : No
Forced : No

Text #2
ID : 14
Format : UTF-8
Codec ID : S_TEXT/UTF8
Codec ID/Info : UTF-8 Plain Text
Title : Пучков
Language : Russian
Default : No
Forced : No

Text #3
ID : 15
Format : UTF-8
Codec ID : S_TEXT/UTF8
Codec ID/Info : UTF-8 Plain Text
Language : English
Default : No
Forced : No

Menu
00:00:00.000 : en:Hit Men
00:04:14.836 : en:Main Titles
00:08:16.076 : en:Kirby Comes Calling
00:11:26.350 : en:Bushwhacked
00:16:35.701 : en:A Job For Matrix
00:19:16.778 : en:At the Airport
00:22:46.948 : en:Emergency Exit
00:26:42.267 : en:Tailing Sully
00:29:03.240 : en:Cindy's Car
00:32:14.766 : en:Panic at the Galleria
00:37:39.797 : en:Hot Pursuit
00:43:59.219 : en:Cooke
00:49:14.992 : en:Patria Enterprises
00:53:45.889 : en:Shopping Spree
00:56:32.347 : en:Jailbreak
00:59:14.509 : en:A Canoe With Wings
01:04:45.380 : en:Soft Landing
01:06:58.556 : en:Storming the Beach
01:10:21.966 : en:An Explosive Presence
01:12:52.618 : en:A Force of One
01:17:48.246 : en:Taking on Arius
01:19:48.198 : en:"Let's Party"
01:24:37.363 : en:A Better Offer
01:26:55.292 : en:End Titles
Свернуть
Скриншоты
ИзображениеИзображение
ИзображениеИзображение
Свернуть

*Не забываем про спасибо*
Не в сети
Профиль  
Начать новую темуОтветить на тему  [ 1 сообщение ] 
Вы не можете начинать темы
Вы не можете отвечать на сообщения
Вы не можете редактировать свои сообщения
Вы не можете удалять свои сообщения