Правила форума

  • В этом разделе создание новых тем Запрещено.
  • Для создания новых тем пользуйтесь Корневым разделом DVD и HD фильмы.
Начать новую темуОтветить на тему  [ Сообщений: 2 ] 
Торрент файл
Размер: 6.35 GB • Зарегистрирован: 3 года 6 месяцев • Статус: Проверено
Скачан: 37 раз • Желающих скачать: 0 • Поблагодарили: 14 раз
 Раздают: 0  |  0 KB/s  ]   Качают: 0  |  0 KB/s  ] 
 Полного источника не было 8 месяцев 
Сообщения
 Добавлено: 2013-05-23 18:37
Модератор
Аватара пользователя
Стаж: 8 лет 10 месяцев
Сообщений: 2743
Спасибок: 21519
Лайков: 338
Кон-Тики / Kon-Tiki

Изображение
Год выпуска: 2012
Страна: Великобритания, Норвегия, Дания, Германия
Жанр: приключения, биография, история
Продолжительность: 118 мин
Перевод: Профессиональный (полное дублирование)
Режиссёр: Хоаким Роннинг, Эспен Сандберг
В ролях: Пал Сверре Валхейм Хэйген, Андерс Баасмо Кристиансен, Густаф Скарсгард, Одд Магнус Уильямсон, Тобиас Зантелман, Якоб Офтебро, Агнес Киттелсен, Томас Арнольд, Йорген Бертаге, Элинор Бурк, Мануэль Коши, Сэм Чэпман, Стефан Кронуолл, Катинка Эгрес, Йен Кнауэр, Оле Слетнер, Ричард Триндер и др.
Описание: Приключенческая картина, в основе которой лежит подвиг всемирно известного путешественника Тура Хейердала, совершившего в 1947 году эпическую экспедицию — пересечение Тихого океана на маленьком шатком плотике Кон-Тики. Гигантские киты, схватки с голодными акулами, грозовой шторм, раздирающий ветер, битва за жизнь посреди бушующей стихии…. Героям предстоит проявить немалую силу и трудолюбие, чтобы этот день не стал последним. Это невероятное путешествие навсегда изменит людей, которые рискнули в него отправиться.
Изображение
Качество: BDRip 720p
Формат: MKV
Видео кодек: H.264
Аудио кодек: AC3
Видео: 1280x536, 25.000 fps, 2.40:1, 6 647 Kbps
Аудио: 6 ch, 1 510 Kbps, 48.0 KHz
MediaInfo
General
Unique ID : 171894610899686207819582124747939954212 (0x8151B2A5B606C8F482C9B28FEE38BE24)
Complete name : Kon.Tiki.2012.D.BDRip.720p.IRONCLUB.mkv
Format : Matroska
Format version : Version 4 / Version 2
File size : 6.35 GiB
Duration : 1h 49mn
Overall bit rate : 8 322 Kbps
Encoded date : UTC 2013-05-24 13:08:09
Writing application : mkvmerge v6.1.0 ('Old Devil') built on Mar 2 2013 14:32:37
Writing library : libebml v1.3.0 + libmatroska v1.4.0

Video
ID : 1
Format : AVC
Format/Info : Advanced Video Codec
Format profile : High@L4.1
Format settings, CABAC : Yes
Format settings, ReFrames : 12 frames
Codec ID : V_MPEG4/ISO/AVC
Duration : 1h 49mn
Bit rate : 6 647 Kbps
Width : 1 280 pixels
Height : 536 pixels
Display aspect ratio : 2.40:1
Frame rate : 25.000 fps
Color space : YUV
Chroma subsampling : 4:2:0
Bit depth : 8 bits
Scan type : Progressive
Bits/(Pixel*Frame) : 0.388
Stream size : 5.07 GiB (80%)
Title : Kon-Tiki 2012 720p BluRay DTS x264-IRONCLUB
Writing library : x264 core 130 r2273 b3065e6
Encoding settings : cabac=1 / ref=12 / deblock=1:-3:-3 / analyse=0x3:0x113 / me=umh / subme=11 / psy=1 / psy_rd=1.05:0.00 / mixed_ref=1 / me_range=48 / chroma_me=1 / trellis=2 / 8x8dct=1 / cqm=0 / deadzone=21,11 / fast_pskip=0 / chroma_qp_offset=-2 / threads=12 / lookahead_threads=2 / sliced_threads=0 / nr=0 / decimate=1 / interlaced=0 / bluray_compat=0 / constrained_intra=0 / bframes=8 / b_pyramid=2 / b_adapt=2 / b_bias=0 / direct=3 / weightb=1 / open_gop=0 / weightp=2 / keyint=250 / keyint_min=25 / scenecut=40 / intra_refresh=0 / rc_lookahead=40 / rc=crf / mbtree=0 / crf=16.5 / qcomp=0.70 / qpmin=0 / qpmax=69 / qpstep=4 / vbv_maxrate=50000 / vbv_bufsize=62500 / crf_max=0.0 / nal_hrd=none / ip_ratio=1.30 / pb_ratio=1.20 / aq=1:0.90
Language : English
Default : Yes
Forced : Yes
Matrix coefficients : BT.709-5, BT.1361, IEC 61966-2-4 709, SMPTE RP177

Audio
ID : 2
Format : DTS
Format/Info : Digital Theater Systems
Codec ID : A_DTS
Duration : 1h 49mn
Bit rate mode : Constant
Bit rate : 1 510 Kbps
Channel(s) : 6 channels
Channel positions : Front: L C R, Side: L R, LFE
Sampling rate : 48.0 KHz
Bit depth : 24 bits
Compression mode : Lossy
Stream size : 1.15 GiB (18%)
Title : DTS 5.1 @ 1510 kbps - Dub, BD RUS
Language : Russian
Default : Yes
Forced : Yes
Свернуть
Скриншоты
Изображение
Изображение
Изображение
Изображение
Изображение
Изображение
Изображение
Изображение
Изображение
Изображение
Изображение
Изображение
Свернуть


Последний раз редактировалось music_boy08 2013-05-25 08:14, всего редактировалось 1 раз.
Не в сети
Профиль  
 Добавлено: 2013-05-24 09:24 (спустя 14 часов)
Модератор
Аватара пользователя
Стаж: 8 лет 10 месяцев
Сообщений: 2743
Спасибок: 21519
Лайков: 338
кто-нибудь вообще проверяет тут топики?)
Не в сети
Профиль  
Начать новую темуОтветить на тему  [ Сообщений: 2 ] 
Вы не можете начинать темы
Вы не можете отвечать на сообщения
Вы не можете редактировать свои сообщения
Вы не можете удалять свои сообщения