Правила форума

  • В этом разделе создание новых тем Запрещено.
  • Для создания новых тем пользуйтесь Корневым разделом DVD и HD фильмы.
Начать новую темуОтветить на тему  [ Сообщений: 3 ] 
Торрент файл
Размер: 13.7 GB • Зарегистрирован: 3 года 11 месяцев • Статус: Проверено
Скачан: 91 раз • Желающих скачать: 0 • Поблагодарили: 23 раза
 Раздают: 0  |  0 KB/s  ]   Качают: 0  |  0 KB/s  ] 
 Полного источника не было 2 года 2 месяца 
Сообщения
 Добавлено: 2012-12-21 16:35
Top-releaser
Аватара пользователя
Стаж: 8 лет 1 месяц
Сообщений: 263
Спасибок: 3102

Кон-Тики / Kon-Tiki



Изображение


Год выпуска: 2012
Страна: Великобритания, Норвегия, Дания
Жанр: боевик, драма, приключения, биография, история
Продолжительность: 01:58:48

Перевод: Авторский одноголосый (Карповский)
Качество: BDRip (1080p)
Формат: MKV
Видео кодек: AVC
Аудио кодек: DTS
Видео: MPEG4 Video (H264) 13500 Кбит/с 1920x804 23.976fps
Аудио #1: Русский (DTS, 6 ch, 1510 Кбит/c) [Авторский одноголосый (Карповский)]
Аудио #2: Норвежский (DTS, 6 ch, 1510 Кбит/c)
Субтитры №1: English

Режиссёр: Хоаким Роннинг, Эспен Сандберг
Сценарист: Петтер Скавлан, Аллан Скотт
Продюсер: Ааге Ааберге, Джереми Томас, Кристоф Дэниэл
Оператор: Геир Хартли Андреассен
Композитор: Юхан Сёдерквист
В ролях: Пал Сверре Валхейм Хэйген, Андерс Баасмо Кристиансен, Густаф Скарсгард, Одд Магнус Уильямсон, Тобиас Зантелман, Якоб Офтебро, Агнес Киттелсен, Томас Арнольд, Йорген Бертаге, Элинор Бурк, Мануэль Коши, Сэм Чэпман, Стефан Кронуолл, Катинка Эгрес, Йен Кнауэр, Оле Слетнер, Ричард Триндер
Описание: «Кон-Тики» — норвежский исторический фильм, посвященный экспедиции Кон-Тики 1947 года.

MediaInfo:
E:\ Кон-Тики.mkv
General
Unique ID : 212665642208834783536175638528957409177 (0x9FFDE9B05B36F943A00AB1FBA620E799)
Complete name : E:\ Кон-Тики.mkv
Format : Matroska
Format version : Version 2
File size : 13.7 GiB
Duration : 1h 58mn
Overall bit rate : 16.5 Mbps
Movie name : Кон-Тики / Kon-Tiki.2012 Release for HDtracker&MeGUI
Encoded date : UTC 2012-12-20 07:12:17
Writing application : mkvmerge v3.4.0 ('Rapunzel') сборка от May 15 2010 09:38:20
Writing library : libebml v0.8.0 + libmatroska v0.9.0
Video #1
ID : 1
Format : AVC
Format/Info : Advanced Video Codec
Format profile : High@L4.1
Format settings, CABAC : Yes
Format settings, ReFrames : 4 frames
Codec ID : V_MPEG4/ISO/AVC
Duration : 1h 58mn
Bit rate : 13.5 Mbps
Width : 1 920 pixels
Height : 804 pixels
Display aspect ratio : 2.40:1
Frame rate mode : Constant
Frame rate : 23.976 fps
Color space : YUV
Chroma subsampling : 4:2:0
Bit depth : 8 bits
Scan type : Progressive
Bits/(Pixel*Frame) : 0.365
Stream size : 10.9 GiB (80%)
Writing library : x264 core 129 r2230 1cffe9f
Encoding settings : cabac=1 / ref=4 / deblock=1:-3:-3 / analyse=0x3:0x133 / me=umh / subme=11 / psy=1 / psy_rd=1.05:0.00 / mixed_ref=1 / me_range=48 / chroma_me=1 / trellis=2 / 8x8dct=1 / cqm=0 / deadzone=21,11 / fast_pskip=0 / chroma_qp_offset=-2 / threads=12 / lookahead_threads=2 / sliced_threads=0 / nr=0 / decimate=1 / interlaced=0 / bluray_compat=0 / constrained_intra=0 / bframes=9 / b_pyramid=2 / b_adapt=2 / b_bias=0 / direct=3 / weightb=1 / open_gop=0 / weightp=2 / keyint=240 / keyint_min=22 / scenecut=40 / intra_refresh=0 / rc_lookahead=60 / rc=2pass / mbtree=1 / bitrate=13500 / ratetol=1.0 / qcomp=0.70 / qpmin=0 / qpmax=69 / qpstep=4 / cplxblur=20.0 / qblur=0.5 / vbv_maxrate=50000 / vbv_bufsize=62500 / nal_hrd=none / ip_ratio=1.40 / aq=2:1.00
Language : English
Default : No
Forced : No
Audio #2
ID : 2
Format : DTS
Format/Info : Digital Theater Systems
Mode : 16
Format settings, Endianness : Big
Codec ID : A_DTS
Duration : 1h 58mn
Bit rate mode : Constant
Bit rate : 1 510 Kbps
Channel(s) : 6 channels
Channel positions : Front: L C R, Side: L R, LFE
Sampling rate : 48.0 KHz
Bit depth : 24 bits
Compression mode : Lossy
Stream size : 1.25 GiB (9%)
Title : DTS 5.1 AVO-A.Karpovsky
Language : Russian
Default : Yes
Forced : No
Audio #3
ID : 3
Format : DTS
Format/Info : Digital Theater Systems
Mode : 16
Format settings, Endianness : Big
Codec ID : A_DTS
Duration : 1h 58mn
Bit rate mode : Constant
Bit rate : 1 510 Kbps
Channel(s) : 6 channels
Channel positions : Front: L C R, Side: L R, LFE
Sampling rate : 48.0 KHz
Bit depth : 24 bits
Compression mode : Lossy
Stream size : 1.25 GiB (9%)
Title : DTS 5.1 Original
Language : Norwegian
Default : No
Forced : No
Text #4
ID : 4
Format : UTF-8
Codec ID : S_TEXT/UTF8
Codec ID/Info : UTF-8 Plain Text
Title : Full
Language : English
Default : No
Forced : No
Свернуть
Скриншоты:
Изображение
Изображение
Изображение
Изображение
Изображение
Свернуть

_________________
http://retracker.local/announce - Ретрекер для АДС(Билайн) (Добавляйте его чтобы была возможность качать со скоростью 100мб\сек)
Изображение
Не в сети
Профиль  
 Добавлено: 2013-05-02 07:56 (спустя 4 месяца 11 дней)
Аватара пользователя
Стаж: 7 лет 5 месяцев
Сообщений: 43
Встаньте на раздачу плз
Не в сети
Профиль  
 Добавлено: 2013-05-02 15:20 (спустя 7 часов)
Аватара пользователя
Стаж: 7 лет
Сообщений: 107
Лайков: 1
Смотрел кто кино?
Не в сети
Профиль  
Начать новую темуОтветить на тему  [ Сообщений: 3 ] 
Вы не можете начинать темы
Вы не можете отвечать на сообщения
Вы не можете редактировать свои сообщения
Вы не можете удалять свои сообщения