Правила форума

  • В этом разделе создание новых тем Запрещено.
  • Для создания новых тем пользуйтесь Корневым разделом DVD и HD фильмы.
Начать новую темуОтветить на тему  [ Сообщений: 4 ] 
Торрент файл
Размер: 10.35 GB • Зарегистрирован: 5 лет • Статус: Проверено
Скачан: 470 раз • Желающих скачать: 0 • Поблагодарили: 67 раз
 Раздают: 0  |  0 KB/s  ]   Качают: 0  |  0 KB/s  ] 
 Полного источника не было 2 года 8 месяцев 
Сообщения
 Добавлено: 2011-11-09 01:02
Руководитель релиз-группы
Аватара пользователя
Стаж: 8 лет 6 месяцев
Возраст: 25
Сообщений: 7578
Спасибок: 51910
Лайков: 14
Конан-варвар / Conan the Barbarian


«Легенда возрождается»



Изображение
Год выпуска: 2011
Страна: Изображение США
Жанр: фэнтези, боевик, приключения
Продолжительность:
01:52:42

Перевод: Профессиональный (полное дублирование) [чистый звук]

Режиссер: Маркус Ниспел
Сценарий: Томас Дин Доннелли, Джошуа Оппенхаймер, Шон Худ, Роберт И. Говард
Продюсер: Джон Балдеччи, Фредерик Малмберг, Лес Уэлдон, Боаз Дэвидсон, Рэндолл Эмметт
Оператор: Томас Клосс
Композитор: Тайлер Бейтс

В ролях:
Джейсон Момоа (Conan), Стивен Лэнг (Khalar Zym), Рэйчел Николс (Tamara), Роуз МакГоун (Marique), Рон Перлман (Corin), Нонсо Анози (Artus), Саид Тагмауи (Ela-Shan), Боб Сапп (Ukafa), Лео Ховард (Young Conan), Стив О’Доннелл (Lucius), Раад Рави (Fassir), Лайла Руасс (Fialla)
Дублёры: Владимир Антоник (Conan) (Conan), Борис Токарев (Khalar Zym) (Khalar Zym), Людмила Шувалова (Tamara) (Tamara), Ирина Киреева (Marique) (Marique), Александр Новиков (Corin) (Corin), Денис Беспалый (Artus) (Artus), Борис Шувалов (Ela-Shan) (Ela-Shan), Рудольф Панков (Fassir) (Fassir), Петр Тобилевич

Описание: Природа наделила его силой. Гибель отца сделала его свирепым. Великий киммерийский воин Конан отправляется в дальнее странствие, чтобы совершить отмщение за кровь своего рода. Но поиски, которые начинаются как личная вендетта, вскоре оборачиваются эпической схваткой со сверхъестественными силами, поработившими народы великой Хайбории. Киммерийский воин - последняя надежда на спасение...



Качество: BDRip 1080p

Формат: MKV
Видео: AVC; 1920x800 (2.40:1); 11.2 mb/s; 23,976 fps; 0,304 bpp
Аудио: Russian; AC3, 448 kb/s (6 ch) 48000Hz
Аудио: English; DTS, 1510 kb/s (6 ch) 48000Hz



Знаете ли Вы, что...
  • Келлан Латс пробовался на роль Конана.
  • Корина мог сыграть Микки Рурк.
  • Съёмки фильма происходили в Болгарии.
Свернуть
BDInfo

Полное имя : Conan.The.Barbarian.2011.D.BDRip.1080p.[uniongang.tv].mkv
Формат : Matroska
Версия формата : Version 2
Размер файла : 10,4 Гбайт
Продолжительность : 1 ч. 52 м.
Общий поток : 13,1 Мбит/сек
Название фильма : Конан-варвар / Conan the Barbarian (2011) .....:::UNIONGANG:::.....
Дата кодирования : UTC 2011-11-08 19:46:40
Программа кодирования : mkvmerge v5.0.1 ('Es ist Sommer') built on Oct 9 2011 11:55:43
Библиотека кодирования : libebml v1.2.2 + libmatroska v1.3.0

Видео
Идентификатор : 1
Формат : AVC
Формат/Информация : Advanced Video Codec
Профиль формата : High@L4.1
Параметр CABAC формата : Да
Параметр ReFrames формата : 5 кадров
Идентификатор кодека : V_MPEG4/ISO/AVC
Продолжительность : 1 ч. 52 м.
Битрейт : 11,2 Мбит/сек
Ширина : 1920 пикселей
Высота : 800 пикселей
Соотношение сторон : 2,40:1
Частота кадров : 23,976 кадра/сек
Цветовое пространство : YUV
Субдискретизация насыщенности : 4:2:0
Битовая глубина : 8 бит
Тип развёртки : Прогрессивная
Бит/(Пиксели*Кадры) : 0.304
Размер потока : 8,61 Гбайт (83%)
Заголовок : Conan.The.Barbarian.2011.BluRay.1080p.DTS.x264-CHD
Библиотека кодирования : x264 core 116 r2074 2641b9e
Настройки программы : cabac=1 / ref=5 / deblock=1:-3:-3 / analyse=0x3:0x113 / me=umh / subme=11 / psy=1 / psy_rd=1.05:0.10 / mixed_ref=1 / me_range=48 / chroma_me=1 / trellis=2 / 8x8dct=1 / cqm=2 / deadzone=21,11 / fast_pskip=0 / chroma_qp_offset=-2 / threads=8 / sliced_threads=0 / nr=0 / decimate=1 / interlaced=0 / bluray_compat=0 / constrained_intra=0 / bframes=6 / b_pyramid=2 / b_adapt=2 / b_bias=0 / direct=3 / weightb=1 / open_gop=0 / weightp=2 / keyint=250 / keyint_min=23 / scenecut=40 / intra_refresh=0 / rc_lookahead=60 / rc=2pass / mbtree=1 / bitrate=11190 / ratetol=1.0 / qcomp=0.70 / qpmin=1 / qpmax=63 / qpstep=4 / cplxblur=20.0 / qblur=0.5 / vbv_maxrate=45000 / vbv_bufsize=40000 / nal_hrd=none / ip_ratio=1.40 / aq=2:0.90
Язык : English

Аудио #1
Идентификатор : 2
Формат : AC-3
Формат/Информация : Audio Coding 3
Расширение режима : CM (complete main)
Идентификатор кодека : A_AC3
Продолжительность : 1 ч. 52 м.
Вид битрейта : Постоянный
Битрейт : 448 Кбит/сек
Каналы : 6 каналов
Расположение каналов : Front: L C R, Side: L R, LFE
Частота : 48,0 КГц
Битовая глубина : 16 бит
Метод сжатия : С потерями
Размер потока : 361 Мбайт (3%)
Заголовок : AC3 5.1 @ 448 kb/s [Russian DUB]
Язык : Russian

Аудио #2
Идентификатор : 3
Формат : DTS
Формат/Информация : Digital Theater Systems
Идентификатор кодека : A_DTS
Продолжительность : 1 ч. 52 м.
Вид битрейта : Постоянный
Битрейт : 1510 Кбит/сек
Каналы : 6 каналов
Расположение каналов : Front: L C R, Side: L R, LFE
Частота : 48,0 КГц
Битовая глубина : 24 бит
Метод сжатия : С потерями
Размер потока : 1,19 Гбайт (11%)
Заголовок : DTS 5.1 @ 1510 kb/s [English]
Язык : English

Текст #1
Идентификатор : 4
Формат : UTF-8
Идентификатор кодека : S_TEXT/UTF8
Идентификатор кодека/Информация : UTF-8 Plain Text
Заголовок : Russian [voronine]
Язык : Russian

Текст #2
Идентификатор : 5
Формат : UTF-8
Идентификатор кодека : S_TEXT/UTF8
Идентификатор кодека/Информация : UTF-8 Plain Text
Заголовок : English
Язык : English
Свернуть
Скриншоты

Изображение
Изображение
Изображение
Свернуть

Не в сети
Профиль  
 Добавлено: 2011-11-09 11:39 (спустя 10 часов)
Модератор релиз-группы
Аватара пользователя
Стаж: 6 лет 9 месяцев
Возраст: 25
Сообщений: 1230
Спасибок: 8209
Лайков: 10
Перевод: Профессиональный (полное дублирование) [чистый звук]
Это все еще звук экранки?
_________________
Изображение 20 Mbps день; 40 Mbps ночь.
Изображение 20 Mbps день; 40 Mbps ночь.
Не в сети
Профиль  
 Добавлено: 2011-11-10 08:39 (спустя 20 часов)
Аватара пользователя
Стаж: 7 лет 8 месяцев
Сообщений: 206
Качество отличное, звук дубляж полный чистый!!! Автору спасибо.

А фильм так себе на один раз под пиво))) В 3D наверно по интересней было бы.
Не в сети
Профиль  
 Добавлено: 2011-11-10 16:53 (спустя 8 часов)
Кинокомментатор
Аватара пользователя
Стаж: 9 лет 1 месяц
Сообщений: 1332
Лайков: 54
да уж) и в правду на 1 раз;) под конец заснул) может сказалось, то что устал, может то что не выспался) а может то что бои такие нереальные в темных подземельях надоели мне)))
в фильме не особо хватает чего то красивого;) всё как то серо и однообразно, мне показалось) но местами довольно масштабно:) актёры как актёры) средняя киношка) 6/10
_________________
Я ВКонтакте
Не в сети
Профиль  
Начать новую темуОтветить на тему  [ Сообщений: 4 ] 
Вы не можете начинать темы
Вы не можете отвечать на сообщения
Вы не можете редактировать свои сообщения
Вы не можете удалять свои сообщения