Правила форума

  • В этом разделе создание новых тем Запрещено.
  • Для создания новых тем пользуйтесь Корневым разделом DVD и HD фильмы.
Начать новую темуОтветить на тему  [ 1 сообщение ] 
Торрент файл
Размер: 9.06 GB • Зарегистрирован: 3 года 9 месяцев • Статус: Проверено
Скачан: 62 раза • Желающих скачать: 0 • Поблагодарили: 24 раза
 Раздают: 0  |  0 KB/s  ]   Качают: 0  |  0 KB/s  ] 
 Полного источника не было 8 месяцев 
Сообщения
 Добавлено: 2013-02-15 18:18
Аватара пользователя
Стаж: 9 лет 1 месяц
Сообщений: 7919
Спасибок: 122107
Лайков: 1191
Конец света / Fin

Изображение


Год выпуска: 2012
Страна: Изображение Испания
Жанр: триллер
Продолжительность: 01:32:50
Субтитры: Русские
Перевод: Профессиональный (многоголосый, закадровый) [Лицензия]


Режиссёр: Хорхе Торрегросса
Сценарист: Серхио Х. Санчес, Хорхе Геррикэчеваррия, Дэвид Монтегудо
Продюсер: Белен Атьенца, Фернандо Бовайра, Мерседес Гамеро
Оператор: Хосе Дэвид Монтеро
Композитор: Лусио Годой

В ролях: Микель Фернандез, Антонио Гарридо, Даниель Грао, Клара Лаго, Эудженио Мира, Бланка Ромеро, Кармен Руис, Андрес Веленкозо, Марибель Верду

Описание: Друзья собираются вместе провести выходные в горной хижине. Однако странное явление полностью меняет планы, оставляя их без связи с внешним миром. По дороге за помощью они отдаляются друг от друга, так как происходящее вокруг оказывает на них сильное влияние.

Изображение Изображение

Качество: BDRip (1080p)
Формат: Matroska
Видео: MPEG-4 AVC, 10.5 Mбит/с, 1888x804
Аудио №1: Русский (АС3, 6 ch, 448 Кбит/с)
Аудио №2: Русский (DTS, 6 ch, 1510 Кбит/с)
Аудио №3: Испанский (DTS, 6 ch, 1510 Кбит/с)

MediaInfo
Общее
Уникальный идентификатор : 219728005642220425527048856935933114716 (0xA54E1316EEEB033FB4857E1B7197795C)
Полное имя : I:\FIN.2012.1080p.nntt.org.mkv
Формат : Matroska
Версия формата : Version 2
Размер файла : 9,06 Гбайт
Продолжительность : 1 ч. 32 м.
Общий поток : 14,0 Мбит/сек
Название фильма : CMEGRoup
Дата кодирования : UTC 2013-02-15 15:47:14
Программа кодирования : mkvmerge v5.7.0 ('The Whirlwind') built on Jul 29 2012 15:12:35
Библиотека кодирования : libebml v1.2.3 + libmatroska v1.3.0

Видео
Идентификатор : 1
Формат : AVC
Формат/Информация : Advanced Video Codec
Профиль формата : High@L4.1
Параметр CABAC формата : Да
Параметр ReFrames формата : 4 кадра
Идентификатор кодека : V_MPEG4/ISO/AVC
Продолжительность : 1 ч. 32 м.
Битрейт : 10,5 Мбит/сек
Ширина : 1888 пикселей
Высота : 804 пикселя
Соотношение сторон : 2,35:1
Режим частоты кадров : Постоянный
Частота кадров : 24,000 кадра/сек
Цветовое пространство : YUV
Субдискретизация насыщенности : 4:2:0
Битовая глубина : 8 бит
Тип развёртки : Прогрессивная
Бит/(Пиксели*Кадры) : 0.288
Размер потока : 6,63 Гбайт (73%)
Библиотека кодирования : x264 core 129 r2245 bc13772
Настройки программы : cabac=1 / ref=4 / deblock=1:-3:-3 / analyse=0x3:0x113 / me=umh / subme=10 / psy=1 / psy_rd=1.00:0.00 / mixed_ref=1 / me_range=32 / chroma_me=1 / trellis=2 / 8x8dct=1 / cqm=0 / deadzone=21,11 / fast_pskip=1 / chroma_qp_offset=-2 / threads=6 / lookahead_threads=1 / sliced_threads=0 / nr=0 / decimate=1 / interlaced=0 / bluray_compat=0 / constrained_intra=0 / bframes=6 / b_pyramid=2 / b_adapt=2 / b_bias=0 / direct=2 / weightb=0 / open_gop=0 / weightp=2 / keyint=240 / keyint_min=24 / scenecut=40 / intra_refresh=0 / rc_lookahead=40 / rc=2pass / mbtree=1 / bitrate=10500 / ratetol=1.0 / qcomp=0.60 / qpmin=0 / qpmax=69 / qpstep=4 / cplxblur=20.0 / qblur=0.5 / ip_ratio=1.40 / aq=1:1.00 / zones=129447,133681,q=40
Язык : English
Default : Да
Forced : Нет

Аудио #1
Идентификатор : 2
Формат : AC-3
Формат/Информация : Audio Coding 3
Расширение режима : CM (complete main)
Параметр Endianness формата : Big
Идентификатор кодека : A_AC3
Продолжительность : 1 ч. 32 м.
Вид битрейта : Постоянный
Битрейт : 448 Кбит/сек
Каналы : 6 каналов
Расположение каналов : Front: L C R, Side: L R, LFE
Частота : 48,0 КГц
Битовая глубина : 16 бит
Метод сжатия : С потерями
Размер потока : 297 Мбайт (3%)
Язык : Russian
Default : Да
Forced : Да

Аудио #2
Идентификатор : 3
Формат : DTS
Формат/Информация : Digital Theater Systems
Режим : 16
Параметр Endianness формата : Big
Идентификатор кодека : A_DTS
Продолжительность : 1 ч. 32 м.
Вид битрейта : Постоянный
Битрейт : 1509 Кбит/сек
Каналы : 6 каналов
Расположение каналов : Front: L C R, Side: L R, LFE
Частота : 48,0 КГц
Битовая глубина : 16 бит
Метод сжатия : С потерями
Размер потока : 1002 Мбайт (11%)
Язык : Russian
Default : Нет
Forced : Нет

Аудио #3
Идентификатор : 4
Формат : DTS
Формат/Информация : Digital Theater Systems
Режим : 16
Параметр Endianness формата : Big
Идентификатор кодека : A_DTS
Продолжительность : 1 ч. 32 м.
Вид битрейта : Постоянный
Битрейт : 1509 Кбит/сек
Каналы : 6 каналов
Расположение каналов : Front: L C R, Side: L R, LFE
Частота : 48,0 КГц
Битовая глубина : 24 бит
Метод сжатия : С потерями
Размер потока : 1002 Мбайт (11%)
Язык : Spanish
Default : Нет
Forced : Нет

Текст
Идентификатор : 5
Формат : UTF-8
Идентификатор кодека : S_TEXT/UTF8
Идентификатор кодека/Информация : UTF-8 Plain Text
Язык : Russian
Default : Да
Forced : Нет

Меню
00:00:00.000 : en:00:00:00.000
00:11:07.083 : en:00:11:07.083
00:20:51.000 : en:00:20:51.000
00:27:55.917 : en:00:27:55.917
00:34:38.833 : en:00:34:38.833
00:40:58.750 : en:00:40:58.750
00:45:43.958 : en:00:45:43.958
00:55:57.042 : en:00:55:57.042
01:07:02.500 : en:01:07:02.500
01:12:26.167 : en:01:12:26.167
01:22:04.667 : en:01:22:04.667
01:26:46.708 : en:01:26:46.708
Свернуть
Скриншоты
Изображение
Изображение
Изображение
Изображение
Изображение
Свернуть
Не в сети
Профиль  
Начать новую темуОтветить на тему  [ 1 сообщение ] 
Вы не можете начинать темы
Вы не можете отвечать на сообщения
Вы не можете редактировать свои сообщения
Вы не можете удалять свои сообщения