Правила форума

  • В этом разделе создание новых тем Запрещено.
  • Для создания новых тем пользуйтесь Корневым разделом DVD и HD фильмы.
Начать новую темуОтветить на тему  [ Сообщений: 3 ] 
Торрент файл
Размер: 7.93 GB • Зарегистрирован: 1 год 6 месяцев • Статус: T Временный релиз
Скачан: 178 раз • Желающих скачать: 0 • Поблагодарили: 35 раз
 Раздают: 2  |  0 KB/s  ]   Качают: 0  |  0 KB/s  ] 
Сообщения
 Добавлено: 2015-05-16 18:11
Аватара пользователя
Стаж: 1 год 8 месяцев
Возраст: 35
Сообщений: 16
Спасибок: 218
Континуум / Project Almanac

Изображение


Год выпуска: 2014
Страна: США (Insurge Pictures, MTV Films, Paramount Pictures)
Жанр: Фантастика, триллер
Продолжительность: 01:46:12
Перевод: Профессиональный (дубляж)

Режиссёр: Дин Израэлайт
В ролях: Джонни Уэстон, София Блэк-Д’Элиа, Сэм Лернер, Аллен Евангелиста, Вирджиния Гарднер, Эми Ландекер, Гари Викс, Максен Линтц, Гэри Граббс, Мишель ДеФрайтс, Карри Стоун, Джамила Томпсон, Хиллари Харли, Кортни Бауэрс, Патрик Джонсон, Джошуа Брэйди, Даниэль Риззо, Михаэль Бейтс, Онира Саттервайт, Аманда Ярош
Описание: Однажды после просмотра старой пленки со дня рождения уже взрослый именинник заметил себя «настоящего» в отражении на видео. Съедаемые любопытством, друзья нашли чертежи таинственного устройства, похожего на машину времени. Они решили доделать ее и испробовать, чтобы вернуться в прошлое и исправить некоторые ошибки. Но что будет, если группа отвязных тинейджеров случайно завладеет машиной времени? Однозначно, будет весело! Пока кто-то не нарушит правила, и веселая шутка не обернется кошмаром. Надо торопиться восстановить континуум, пока мир окончательно не разрушен!
ИзображениеИзображениеИзображение
Качество: BDRip (1080p)
Формат: MKV
Видео кодек: H264 (AVC)
Аудио кодек: AC3 (Dolby Digital)
Видео: MPEG-4 AVC, 8800 Кбит/с, 1920x800
Аудио #1: Русский (AC3, 2 ch, 384 Кбит/с)[Профессиональный (дубляж)]
Аудио #2: Английский (DTS, 6 ch, 1509 Кбит/с)
MediaInfo
Общее
Уникальный идентификатор : 244808301680726913801422361633352731194 (0xB82C5D2782FA154182616964C1424A3A)
Полное имя : K0Ht1Huum.2014.D.BDRip.1080p.mkv
Формат : Matroska
Версия формата : Version 4 / Version 2
Размер файла : 7,93 Гбайт
Продолжительность : 1 ч. 46 м.
Общий поток : 10,7 Мбит/сек
Дата кодирования : UTC 2015-05-14 22:00:19
Программа кодирования : mkvmerge v7.6.0 ('Garden of Dreams') 32bit built on Feb 8 2015 12:51:39
Библиотека кодирования : libebml v1.3.1 + libmatroska v1.4.2
DURATION : 01:46:12.789000000
NUMBER_OF_FRAMES : 597449
NUMBER_OF_BYTES : 1202067388
_STATISTICS_WRITING_APP : mkvmerge v7.6.0 ('Garden of Dreams') 32bit built on Feb 8 2015 12:51:39
_STATISTICS_WRITING_DATE_UTC : 2015-05-14 22:00:19
_STATISTICS_TAGS : BPS DURATION NUMBER_OF_FRAMES NUMBER_OF_BYTES

Видео
Идентификатор : 1
Формат : AVC
Формат/Информация : Advanced Video Codec
Профиль формата : High@L4.1
Параметр CABAC формата : Да
Параметр ReFrames формата : 5 кадров
Идентификатор кодека : V_MPEG4/ISO/AVC
Продолжительность : 1 ч. 46 м.
Битрейт : 8800 Кбит/сек
Ширина : 1920 пикселей
Высота : 800 пикселей
Соотношение сторон : 2,40:1
Режим частоты кадров : Постоянный
Частота кадров : 23,976 кадра/сек
Цветовое пространство : YUV
Субдискретизация насыщенности : 4:2:0
Битовая глубина : 8 бит
Тип развёртки : Прогрессивная
Бит/(Пиксели*Кадры) : 0.239
Размер потока : 6,37 Гбайт (80%)
Библиотека кодирования : x264 core 144 r2525 40bb568
Настройки программы : cabac=1 / ref=5 / deblock=1:0:0 / analyse=0x3:0x133 / me=umh / subme=7 / psy=1 / psy_rd=1.00:0.00 / mixed_ref=1 / me_range=16 / chroma_me=1 / trellis=1 / 8x8dct=1 / cqm=0 / deadzone=21,11 / fast_pskip=0 / chroma_qp_offset=-2 / threads=60 / lookahead_threads=6 / sliced_threads=0 / nr=0 / decimate=1 / interlaced=0 / bluray_compat=0 / constrained_intra=0 / bframes=3 / b_pyramid=2 / b_adapt=1 / b_bias=0 / direct=1 / weightb=1 / open_gop=0 / weightp=2 / keyint=250 / keyint_min=23 / scenecut=40 / intra_refresh=0 / rc_lookahead=40 / rc=2pass / mbtree=1 / bitrate=8800 / ratetol=1.0 / qcomp=0.60 / qpmin=0 / qpmax=69 / qpstep=4 / cplxblur=20.0 / qblur=0.5 / ip_ratio=1.40 / aq=1:1.00
Язык : English
Default : Да
Forced : Нет
DURATION : 01:46:12.752000000
NUMBER_OF_FRAMES : 152793
NUMBER_OF_BYTES : 7002736135
_STATISTICS_WRITING_APP : mkvmerge v7.6.0 ('Garden of Dreams') 32bit built on Feb 8 2015 12:51:39
_STATISTICS_WRITING_DATE_UTC : 2015-05-14 22:00:19
_STATISTICS_TAGS : BPS DURATION NUMBER_OF_FRAMES NUMBER_OF_BYTES

Аудио #1
Идентификатор : 2
Формат : AC-3
Формат/Информация : Audio Coding 3
Расширение режима : CM (complete main)
Параметр Endianness формата : Big
Идентификатор кодека : A_AC3
Продолжительность : 1 ч. 46 м.
Вид битрейта : Постоянный
Битрейт : 384 Кбит/сек
Каналы : 2 канала
Расположение каналов : Front: L R
Частота : 48,0 КГц
Битовая глубина : 16 бит
Метод сжатия : С потерями
Размер потока : 292 Мбайт (4%)
Язык : Russian
Default : Да
Forced : Нет

Аудио #2
Идентификатор : 3
Формат : DTS
Формат/Информация : Digital Theater Systems
Режим : 16
Параметр Endianness формата : Big
Идентификатор кодека : A_DTS
Продолжительность : 1 ч. 46 м.
Вид битрейта : Постоянный
Битрейт : 1509 Кбит/сек
Каналы : 6 каналов
Расположение каналов : Front: L C R, Side: L R, LFE
Частота : 48,0 КГц
Битовая глубина : 24 бит
Метод сжатия : С потерями
Размер потока : 1,12 Гбайт (14%)
Язык : English
Default : Нет
Forced : Нет

Меню
00:00:00.000 : en:00:00:00.000
00:07:56.309 : en:00:07:56.309
00:15:20.211 : en:00:15:20.211
00:23:49.803 : en:00:23:49.803
00:31:15.665 : en:00:31:15.665
00:39:19.274 : en:00:39:19.274
00:46:58.274 : en:00:46:58.274
00:54:11.957 : en:00:54:11.957
01:00:55.485 : en:01:00:55.485
01:09:43.304 : en:01:09:43.304
01:16:24.371 : en:01:16:24.371
01:23:07.733 : en:01:23:07.733
01:32:20.618 : en:01:32:20.618
01:41:19.323 : en:01:41:19.323

Свернуть
Скриншоты
Изображение
Изображение
Изображение
Свернуть

Изображение


Изображение


Последний раз редактировалось Astr81 2015-05-16 22:07, всего редактировалось 2 раз(а).
Не в сети
Профиль  
 Добавлено: 2015-05-16 21:44 (спустя 3 часа)
Модератор
Аватара пользователя
Стаж: 5 лет 8 месяцев
Сообщений: 6281
Спасибок: 17335
Лайков: 1633
Видео: MPEG-4 AVC, 8800 Кбит/с, 1920x800
Скрины 1280*536
_________________
Изображение Изображение Изображение
Не в сети
Профиль  
 Добавлено: 2015-05-27 14:20 (спустя 10 дней)
Top-releaser
Аватара пользователя
Стаж: 7 лет 4 месяца
Возраст: 38
Сообщений: 5347
Спасибок: 10065
Лайков: 2936
Ерунда. а не фильм....
Не в сети
Профиль  
Начать новую темуОтветить на тему  [ Сообщений: 3 ] 
Вы не можете начинать темы
Вы не можете отвечать на сообщения
Вы не можете редактировать свои сообщения
Вы не можете удалять свои сообщения