Правила форума

  • В этом разделе создание новых тем Запрещено.
  • Для создания новых тем пользуйтесь Корневым разделом DVD и HD фильмы.
Начать новую темуОтветить на тему  [ 1 сообщение ] 
Торрент файл
Размер: 2.91 GB • Зарегистрирован: 3 года 9 месяцев • Статус: Проверено
Скачан: 13 раз • Желающих скачать: 0 • Поблагодарили: 7 раз
 Раздают: 0  |  0 KB/s  ]   Качают: 0  |  0 KB/s  ] 
 Полного источника не было 4 дня 
Сообщения
 Добавлено: 2013-02-09 17:15
Top-releaser
Аватара пользователя
Стаж: 6 лет 7 месяцев
Сообщений: 2078
Спасибок: 3230
Лайков: 9
Изображение

Копи царя Соломона (часть 1)
King Solomon's Mines (part 1)


Год выпуска: 2004
Страна: Германия, США
Жанр: фэнтези, боевик, мелодрама, приключения
Продолжительность: 01:24:33
Перевод: Профессиональный (многоголосый, закадровый)
Режиссер: Стив Бойум
Сценарий: Стивен Х. Берман, Г. Райдер Хаггард, Адам Армус, Нора Кэй Фостер
Продюсер: Расселл Д. Марковиц, Грег Бакл, Роберт Холми мл., Ларри Левинсон, Ник Ломбардо
Оператор: Уильям Уэйджес
Композитор: Марк Килиан, Дэниэл Лихт
В ролях: Патрик Суэйзи, Элисон Дуди, Рой Мэрсден, Джон Стэндинг, Гэвин Худ, Сидеде Оньюло, Йен Робертс, Ник Борэйни, Хаким Кае-Казим, Леседи Могоэтл, Godfrey Lekala, Mesia Gumede

Мировая премьера: 6 июня 2004
Релиз на DVD: 11 декабря 2008, «CP-Digital»
Описание: Одни говорили, что нашедший эти копи станет богатейшим человеком на земле. Другие - что его постигнет страшное проклятье. Но никто из тех, кто уходил на их поиски, не вернулся назад. Одним из таких отважных искателей приключений, бесследно исчезнувших на просторах Африканского континента, оказался отец красавицы Элизабет.
И кто, как не самый знаменитый в этих краях охотник Аллан Куотермейн, может помочь дочери найти пропавшего отца? Конечно, Аллан прекрасно знает легенду о загадочных копях царя Соломона. Но для него не существует слишком опасных или невыполнимых задач...

Раздача группы:
Изображение

Изображение User Rating: 6.353 (443)
Изображение User Rating: 5.90 (1 714)
Качество: BDRip, 720p
Формат: MKV
Видео: AVC; 1280x720 (16:9); 4000 Kbps; 25 fps; 0,174 bit/pixel
Аудио №1: русский; AC3; 448 Kbps; CBR; 6 ch
Аудио №2: английский; AC3; 384 Kbps; CBR; 2 ch

mediainfo
Общее
Уникальный идентификатор : 247208112922763375839946105758421217367 (0xB9FA8CFBCFC97223B788BC75D2C1F057)
Полное имя : Z:\WWW\TR-Downloads\King.Solomons.Mines.Part.1.2004.720p.mkv
Формат : Matroska
Версия формата : Version 1
Размер файла : 2,91 Гбайт
Продолжительность : 1 ч. 24 м.
Общий поток : 4931 Кбит/сек
Дата кодирования : UTC 2009-09-01 19:36:19
Программа кодирования : mkvmerge v2.2.0 ('Turn It On Again') built on Mar 4 2008 12:58:26
Библиотека кодирования : libebml v0.7.7 + libmatroska v0.8.1

Видео
Идентификатор : 1
Формат : AVC
Формат/Информация : Advanced Video Codec
Профиль формата : High@L4.1
Параметр CABAC формата : Да
Параметр ReFrames формата : 5 кадров
Идентификатор кодека : V_MPEG4/ISO/AVC
Продолжительность : 1 ч. 24 м.
Битрейт : 4096 Кбит/сек
Ширина : 1280 пикселей
Высота : 720 пикселей
Соотношение сторон : 16:9
Частота кадров : 25,000 кадров/сек
Цветовое пространство : YUV
Субдискретизация насыщенности : 4:2:0
Битовая глубина : 8 бит
Тип развёртки : Прогрессивная
Бит/(Пиксели*Кадры) : 0.178
Размер потока : 2,36 Гбайт (81%)
Библиотека кодирования : x264 core 72 r1240 35627b6
Настройки программы : cabac=1 / ref=5 / deblock=1:0:0 / analyse=0x3:0x133 / me=umh / subme=7 / psy=1 / psy_rd=1.0:0.2 / mixed_ref=1 / me_range=16 / chroma_me=1 / trellis=1 / 8x8dct=1 / cqm=0 / deadzone=21,11 / chroma_qp_offset=-3 / threads=12 / nr=0 / decimate=1 / mbaff=0 / bframes=3 / b_pyramid=0 / b_adapt=1 / b_bias=0 / direct=3 / wpredb=1 / keyint=250 / keyint_min=25 / scenecut=40 / rc_lookahead=40 / rc=2pass / mbtree=1 / bitrate=4096 / ratetol=1.0 / qcomp=0.60 / qpmin=10 / qpmax=51 / qpstep=4 / cplxblur=20.0 / qblur=0.5 / ip_ratio=1.40 / aq=1:1.00
Язык : English
Default : Да
Forced : Нет

Аудио #1
Идентификатор : 2
Формат : AC-3
Формат/Информация : Audio Coding 3
Расширение режима : CM (complete main)
Параметр Endianness формата : Big
Идентификатор кодека : A_AC3
Продолжительность : 1 ч. 24 м.
Вид битрейта : Постоянный
Битрейт : 448 Кбит/сек
Каналы : 6 каналов
Расположение каналов : Front: L C R, Side: L R, LFE
Частота : 48,0 КГц
Битовая глубина : 16 бит
Метод сжатия : С потерями
Размер потока : 271 Мбайт (9%)
Язык : Russian
Default : Да
Forced : Нет

Аудио #2
Идентификатор : 3
Формат : AC-3
Формат/Информация : Audio Coding 3
Расширение режима : CM (complete main)
Параметр Endianness формата : Big
Идентификатор кодека : A_AC3
Продолжительность : 1 ч. 24 м.
Вид битрейта : Постоянный
Битрейт : 384 Кбит/сек
Каналы : 2 канала
Расположение каналов : Front: L R
Частота : 48,0 КГц
Битовая глубина : 16 бит
Метод сжатия : С потерями
Размер потока : 232 Мбайт (8%)
Язык : English
Default : Нет
Forced : Нет

Меню
00:00:00.000 : en:00:00:00.000
00:05:50.000 : en:00:05:50.000
00:12:05.000 : en:00:12:05.000
00:22:44.000 : en:00:22:44.000
00:32:56.000 : en:00:32:56.000
00:37:39.000 : en:00:37:39.000
00:40:09.000 : en:00:40:09.000
00:44:01.000 : en:00:44:01.000
00:47:18.000 : en:00:47:18.000
00:52:55.000 : en:00:52:55.000
01:00:56.000 : en:01:00:56.000
01:07:30.000 : en:01:07:30.000
01:11:25.000 : en:01:11:25.000
01:15:53.000 : en:01:15:53.000
01:19:04.000 : en:01:19:04.000
Свернуть
Скриншоты

Изображение
Изображение
Изображение
Изображение
Изображение
Свернуть
Не в сети
Профиль  
Начать новую темуОтветить на тему  [ 1 сообщение ] 
Вы не можете начинать темы
Вы не можете отвечать на сообщения
Вы не можете редактировать свои сообщения
Вы не можете удалять свои сообщения