Правила форума

  • В этом разделе создание новых тем Запрещено.
  • Для создания новых тем пользуйтесь Корневым разделом DVD и HD фильмы.
Начать новую темуОтветить на тему  [ 1 сообщение ] 
Торрент файл
Размер: 3.12 GB • Зарегистрирован: 3 года 9 месяцев • Статус: Проверено
Скачан: 10 раз • Желающих скачать: 0 • Поблагодарили: 5 раз
 Раздают: 0  |  0 KB/s  ]   Качают: 0  |  0 KB/s  ] 
 Полного источника не было 2 года 7 месяцев 
Сообщения
 Добавлено: 2013-02-09 17:22
Top-releaser
Аватара пользователя
Стаж: 6 лет 7 месяцев
Сообщений: 2078
Спасибок: 3229
Лайков: 9
Изображение

Копи царя Соломона (часть 2)
King Solomon's Mines (part 2)


Год выпуска: 2004
Страна: Германия, США
Жанр: фэнтези, боевик, мелодрама, приключения
Продолжительность: 01:24:41
Перевод: Профессиональный (многоголосый, закадровый)
Режиссер: Стив Бойум
Сценарий: Стивен Х. Берман, Г. Райдер Хаггард, Адам Армус, Нора Кэй Фостер
Продюсер: Расселл Д. Марковиц, Грег Бакл, Роберт Холми мл., Ларри Левинсон, Ник Ломбардо
Оператор: Уильям Уэйджес
Композитор: Марк Килиан, Дэниэл Лихт
В ролях: Патрик Суэйзи, Элисон Дуди, Рой Мэрсден, Джон Стэндинг, Гэвин Худ, Сидеде Оньюло, Йен Робертс, Ник Борэйни, Хаким Кае-Казим, Леседи Могоэтл, Godfrey Lekala, Mesia Gumede

Мировая премьера: 6 июня 2004
Релиз на DVD: 11 декабря 2008, «CP-Digital»
Описание: Одни говорили, что нашедший эти копи станет богатейшим человеком на земле. Другие - что его постигнет страшное проклятье. Но никто из тех, кто уходил на их поиски, не вернулся назад. Одним из таких отважных искателей приключений, бесследно исчезнувших на просторах Африканского континента, оказался отец красавицы Элизабет.
И кто, как не самый знаменитый в этих краях охотник Аллан Куотермейн, может помочь дочери найти пропавшего отца? Конечно, Аллан прекрасно знает легенду о загадочных копях царя Соломона. Но для него не существует слишком опасных или невыполнимых задач...

Раздача группы:
Изображение

Изображение User Rating: 6.353 (443)
Изображение User Rating: 5.90 (1 714)
Качество: BDRip, 720p
Формат: MKV
Видео: AVC; 1280x720 (16:9); 4277 Kbps; 25 fps; 0,186 bit/pixel
Аудио №1: русский; AC3; 448 Kbps; CBR; 6 ch
Аудио №2: английский; AC3; 448 Kbps; CBR; 6 ch

Субтитры: русские
mediainfo
Общее
Уникальный идентификатор : 202293484395370057002418333119461619783 (0x98304ED386F08C8D871BE79701B27847)
Полное имя : Z:\WWW\TR-Downloads\Копи царя Соломона, часть 2\King.Solomons.Mines.Part.2.2004.720p.mkv
Формат : Matroska
Версия формата : Version 1
Размер файла : 3,12 Гбайт
Продолжительность : 1 ч. 24 м.
Общий поток : 5279 Кбит/сек
Название фильма : King Solomons Mines. Part 2
Дата кодирования : UTC 2009-09-26 10:37:40
Программа кодирования : mkvmerge v2.3.0 ('Freak U') built on Sep 8 2008 18:32:16
Библиотека кодирования : libebml v0.7.7 + libmatroska v0.8.1

Видео
Идентификатор : 1
Формат : AVC
Формат/Информация : Advanced Video Codec
Профиль формата : High@L5.1
Параметр CABAC формата : Да
Параметр ReFrames формата : 1 кадр
Идентификатор кодека : V_MPEG4/ISO/AVC
Продолжительность : 1 ч. 24 м.
Битрейт : 4389 Кбит/сек
Ширина : 1280 пикселей
Высота : 720 пикселей
Соотношение сторон : 16:9
Частота кадров : 25,000 кадров/сек
Цветовое пространство : YUV
Субдискретизация насыщенности : 4:2:0
Битовая глубина : 8 бит
Тип развёртки : Прогрессивная
Бит/(Пиксели*Кадры) : 0.190
Размер потока : 2,53 Гбайт (81%)
Заголовок : King.Solomons.Mines.Part.2.2004.720p.mkv
Библиотека кодирования : x264 core 59 r826bm 138601d
Настройки программы : cabac=1 / ref=1 / deblock=1:0:0 / analyse=0x3:0x13 / me=umh / subme=6 / brdo=0 / mixed_ref=0 / me_range=16 / chroma_me=1 / trellis=1 / 8x8dct=1 / cqm=0 / deadzone=21,11 / chroma_qp_offset=0 / threads=1 / nr=0 / decimate=1 / mbaff=0 / bframes=0 / keyint=250 / keyint_min=20 / scenecut=40 / rc=2pass / bitrate=4389 / ratetol=1.0 / rceq='blurCplx^(1-qComp)' / qcomp=1.00 / qpmin=10 / qpmax=51 / qpstep=4 / cplxblur=20.0 / qblur=0.5 / ip_ratio=1.40 / aq=2:1.00
Язык : English
Default : Да
Forced : Нет

Аудио #1
Идентификатор : 2
Формат : AC-3
Формат/Информация : Audio Coding 3
Расширение режима : CM (complete main)
Параметр Endianness формата : Big
Идентификатор кодека : A_AC3
Продолжительность : 1 ч. 24 м.
Вид битрейта : Постоянный
Битрейт : 448 Кбит/сек
Каналы : 6 каналов
Расположение каналов : Front: L C R, Side: L R, LFE
Частота : 48,0 КГц
Битовая глубина : 16 бит
Метод сжатия : С потерями
Задержка видео : 600 мс.
Размер потока : 271 Мбайт (8%)
Заголовок : RUS DD 5.1 448 kbps
Язык : Russian
Default : Да
Forced : Нет

Аудио #2
Идентификатор : 3
Формат : AC-3
Формат/Информация : Audio Coding 3
Расширение режима : CM (complete main)
Параметр Endianness формата : Big
Идентификатор кодека : A_AC3
Продолжительность : 1 ч. 24 м.
Вид битрейта : Постоянный
Битрейт : 448 Кбит/сек
Каналы : 6 каналов
Расположение каналов : Front: L C R, Side: L R, LFE
Частота : 48,0 КГц
Битовая глубина : 16 бит
Метод сжатия : С потерями
Задержка видео : 600 мс.
Размер потока : 271 Мбайт (8%)
Заголовок : ENG DD 5.1 448 kbps
Язык : English
Default : Нет
Forced : Нет

Текст
Идентификатор : 4
Формат : UTF-8
Идентификатор кодека : S_TEXT/UTF8
Идентификатор кодека/Информация : UTF-8 Plain Text
Язык : Russian
Default : Да
Forced : Нет

Меню
00:00:00.000 : en:00:00:00.000
00:05:50.000 : en:00:05:50.000
00:12:39.000 : en:00:12:39.000
00:18:34.000 : en:00:18:34.000
00:30:39.000 : en:00:30:39.000
00:38:30.000 : en:00:38:30.000
00:44:03.000 : en:00:44:03.000
00:48:49.000 : en:00:48:49.000
00:58:51.000 : en:00:58:51.000
01:05:28.000 : en:01:05:28.000
01:15:27.000 : en:01:15:27.000
01:21:33.000 : en:01:21:33.000
Свернуть
Скриншоты

Изображение
Изображение
Изображение
Изображение
Изображение
Свернуть
Не в сети
Профиль  
Начать новую темуОтветить на тему  [ 1 сообщение ] 
Вы не можете начинать темы
Вы не можете отвечать на сообщения
Вы не можете редактировать свои сообщения
Вы не можете удалять свои сообщения