Правила форума

  • В этом разделе создание новых тем Запрещено.
  • Для создания новых тем пользуйтесь Корневым разделом DVD и HD фильмы.
Начать новую темуОтветить на тему  [ Сообщений: 9 ] 
Торрент файл
Размер: 11.4 GB • Зарегистрирован: 3 года 1 месяц • Статус: Проверено
Скачан: 106 раз • Желающих скачать: 0 • Поблагодарили: 63 раза
 Раздают: 0  |  0 KB/s  ]   Качают: 0  |  0 KB/s  ] 
 Полного источника не было 13 дней 
Сообщения
 Добавлено: 2013-10-24 04:42
Аватара пользователя
Стаж: 9 лет 1 месяц
Сообщений: 7977
Спасибок: 122203
Лайков: 1191
Копы в юбках (Расширенная версия) / The Heat (Unrated)

«Крепкие булки, храброе сердце!»

Изображение


Год выпуска: 2013
Страна: Изображение США
Жанр: комедия, криминал, боевик, детектив
Продолжительность: 02:00:20
Субтитры: Русские, украинские, английские
Перевод: Профессиональный (полное дублирование) [Лицензия]

Примечание: UNRATED версия. Длиннее театральной ~ 3 мин. Полный кинотеатральный перевод!


Режиссер: Пол Фиг
Сценарий: Кэти Дипполд
Продюсер: Питер Чернин, Дженно Топпинг, Дилан Кларк
Оператор: Роберт Д. Йоумен
Композитор: Майкл Эндрюс

В ролях: Сандра Баллок, Мелисса МакКарти, Кэйтлин Олсен, Таран Киллэм, Томас Ф. Уилсон, Майкл Рапапорт, Демиан Бишир, Тони Хейл, Билли Барр, Энди Бакли

Описание: Агенту ФБР и бостонскому полицейскому доверено ответственное задание: выйти на след и обезвредить опасного преступника. И это даже хорошо, что копы — женщины, ведь бандит-то — русский. А непредсказуемости русской смекалки можно противопоставить только столь же непредсказуемую женскую логику.

Изображение Изображение

Раздача группы: Изображение

Качество: BDRip (1080p)
Формат: Matroska
Видео: MPEG-4 AVC, 10.4 Мбит/с, 1920x800
Аудио №1: Русский (DTS, 48,0 КГц, 6 ch, 768 Кбит/c)
Аудио №1: Русский (AC3, 48,0 КГц, 6 ch, 448 Кбит/c)
Аудио №1: Украинский (AC3, 48,0 КГц, 6 ch, 448 Кбит/c)
Аудио №2: Английский (DTS, 48,0 КГц, 6 ch, 1510 Кбит/c)

MediaInfo
Общее
Уникальный идентификатор : 250188767649325309727850309128985820511 (0xBC389A9B95680606B4AEC58F2F94BD5F)
Полное имя : C:\Фильмы\The.Heat.2013.UNRATED.BluRay.1080p.DTS.x264.R.G.Daredevil.mkv
Формат : Matroska
Версия формата : Version 2
Размер файла : 11,4 Гбайт
Продолжительность : 2 ч. 0 м.
Общий поток : 13,6 Мбит/сек
Название фильма : Kopy.v.ubkah.2013.D.BDRip.h264.NNM-CLUB.GIU
Дата кодирования : UTC 2013-10-29 22:18:39
Программа кодирования : mkvmerge v6.3.0 ('You can't stop me!') built on Jun 28 2013 20:09:41
Библиотека кодирования : libebml v1.3.0 + libmatroska v1.4.0

Видео
Идентификатор : 1
Формат : AVC
Формат/Информация : Advanced Video Codec
Профиль формата : High@L4.1
Параметр CABAC формата : Да
Параметр ReFrames формата : 5 кадров
Идентификатор кодека : V_MPEG4/ISO/AVC
Продолжительность : 2 ч. 0 м.
Битрейт : 10,4 Мбит/сек
Ширина : 1920 пикселей
Высота : 800 пикселей
Соотношение сторон : 2,40:1
Режим частоты кадров : Постоянный
Частота кадров : 23,976 кадра/сек
Цветовое пространство : YUV
Субдискретизация насыщенности : 4:2:0
Битовая глубина : 8 бит
Тип развёртки : Прогрессивная
Бит/(Пиксели*Кадры) : 0.282
Размер потока : 8,51 Гбайт (75%)
Заголовок : hahay0yo@CHD
Библиотека кодирования : x264 core 138 r2356 a1d3d17
Настройки программы : cabac=1 / ref=5 / deblock=1:-3:-3 / analyse=0x3:0x113 / me=umh / subme=10 / psy=1 / psy_rd=1.00:0.05 / mixed_ref=1 / me_range=32 / chroma_me=1 / trellis=2 / 8x8dct=1 / cqm=0 / deadzone=21,11 / fast_pskip=0 / chroma_qp_offset=-2 / threads=18 / lookahead_threads=1 / sliced_threads=0 / nr=0 / decimate=1 / interlaced=0 / bluray_compat=0 / constrained_intra=0 / bframes=5 / b_pyramid=2 / b_adapt=2 / b_bias=0 / direct=3 / weightb=1 / open_gop=0 / weightp=2 / keyint=250 / keyint_min=23 / scenecut=40 / intra_refresh=0 / rc=2pass / mbtree=0 / bitrate=10385 / ratetol=1.0 / qcomp=0.70 / qpmin=0 / qpmax=69 / qpstep=4 / cplxblur=20.0 / qblur=0.5 / ip_ratio=1.40 / pb_ratio=1.30 / aq=2:1.00
Язык : English
Default : Да
Forced : Нет

Аудио #1
Идентификатор : 2
Формат : DTS
Формат/Информация : Digital Theater Systems
Режим : 16
Параметр Endianness формата : Big
Идентификатор кодека : A_DTS
Продолжительность : 2 ч. 0 м.
Вид битрейта : Постоянный
Битрейт : 768 Кбит/сек
Каналы : 6 каналов
Расположение каналов : Front: L C R, Side: L R, LFE
Частота : 48,0 КГц
Битовая глубина : 24 бит
Метод сжатия : С потерями
Размер потока : 661 Мбайт (6%)
Заголовок : BD EUR 768
Язык : Russian
Default : Да
Forced : Нет

Аудио #2
Идентификатор : 3
Формат : AC-3
Формат/Информация : Audio Coding 3
Расширение режима : CM (complete main)
Параметр Endianness формата : Big
Идентификатор кодека : A_AC3
Продолжительность : 2 ч. 0 м.
Вид битрейта : Постоянный
Битрейт : 448 Кбит/сек
Каналы : 6 каналов
Расположение каналов : Front: L C R, Side: L R, LFE
Частота : 48,0 КГц
Битовая глубина : 16 бит
Метод сжатия : С потерями
Размер потока : 386 Мбайт (3%)
Заголовок : BD EUR 448
Язык : Russian
Default : Нет
Forced : Нет

Аудио #3
Идентификатор : 4
Формат : AC-3
Формат/Информация : Audio Coding 3
Расширение режима : CM (complete main)
Параметр Endianness формата : Big
Идентификатор кодека : A_AC3
Продолжительность : 2 ч. 0 м.
Вид битрейта : Постоянный
Битрейт : 448 Кбит/сек
Каналы : 6 каналов
Расположение каналов : Front: L C R, Side: L R, LFE
Частота : 48,0 КГц
Битовая глубина : 16 бит
Метод сжатия : С потерями
Размер потока : 386 Мбайт (3%)
Заголовок : BD EUR 448
Язык : Ukrainian
Default : Нет
Forced : Нет

Аудио #4
Идентификатор : 5
Формат : DTS
Формат/Информация : Digital Theater Systems
Режим : 16
Параметр Endianness формата : Big
Идентификатор кодека : A_DTS
Продолжительность : 2 ч. 0 м.
Вид битрейта : Постоянный
Битрейт : 1509 Кбит/сек
Каналы : 6 каналов
Расположение каналов : Front: L C R, Side: L R, LFE
Частота : 48,0 КГц
Битовая глубина : 24 бит
Метод сжатия : С потерями
Размер потока : 1,27 Гбайт (11%)
Заголовок : dts 5.1 1536kbps
Язык : English
Default : Нет
Forced : Нет

Текст #1
Идентификатор : 6
Формат : UTF-8
Идентификатор кодека : S_TEXT/UTF8
Идентификатор кодека/Информация : UTF-8 Plain Text
Язык : Russian
Default : Нет
Forced : Нет

Текст #2
Идентификатор : 7
Формат : UTF-8
Идентификатор кодека : S_TEXT/UTF8
Идентификатор кодека/Информация : UTF-8 Plain Text
Язык : Ukrainian
Default : Нет
Forced : Нет

Текст #3
Идентификатор : 8
Формат : UTF-8
Идентификатор кодека : S_TEXT/UTF8
Идентификатор кодека/Информация : UTF-8 Plain Text
Заголовок : English (Full)
Язык : English
Default : Нет
Forced : Нет

Текст #4
Идентификатор : 9
Формат : UTF-8
Идентификатор кодека : S_TEXT/UTF8
Идентификатор кодека/Информация : UTF-8 Plain Text
Заголовок : English (SDH)
Язык : English
Default : Нет
Forced : Нет

Текст #5
Идентификатор : 10
Формат : UTF-8
Идентификатор кодека : S_TEXT/UTF8
Идентификатор кодека/Информация : UTF-8 Plain Text
Заголовок : English (SDH-Colored)
Язык : English
Default : Нет
Forced : Нет

Меню
00:00:00.000 : en:00:00:00.000
00:01:46.022 : en:00:01:46.022
00:05:28.453 : en:00:05:28.453
00:07:15.977 : en:00:07:15.977
00:11:26.435 : en:00:11:26.435
00:14:17.898 : en:00:14:17.898
00:16:38.956 : en:00:16:38.956
00:19:50.939 : en:00:19:50.939
00:23:23.610 : en:00:23:23.610
00:26:18.118 : en:00:26:18.118
00:30:11.976 : en:00:30:11.976
00:34:07.837 : en:00:34:07.837
00:36:27.101 : en:00:36:27.101
00:39:12.975 : en:00:39:12.975
00:44:44.139 : en:00:44:44.139
00:47:59.584 : en:00:47:59.584
00:52:59.801 : en:00:52:59.801
00:56:13.786 : en:00:56:13.786
01:00:57.778 : en:01:00:57.778
01:03:25.801 : en:01:03:25.801
01:05:47.151 : en:01:05:47.151
01:09:34.795 : en:01:09:34.795
01:17:00.574 : en:01:17:00.574
01:23:38.638 : en:01:23:38.638
01:26:51.622 : en:01:26:51.622
01:28:37.019 : en:01:28:37.019
01:31:07.420 : en:01:31:07.420
01:34:08.559 : en:01:34:08.559
01:37:03.233 : en:01:37:03.233
01:39:41.224 : en:01:39:41.224
01:44:20.670 : en:01:44:20.670
01:45:41.501 : en:01:45:41.501
01:48:54.569 : en:01:48:54.569
01:51:15.710 : en:01:51:15.710
01:54:02.710 : en:01:54:02.710
01:55:24.876 : en:01:55:24.876
Свернуть
Знаете ли вы, что...
О запуске сиквела было объявлено до премьеры фильма.

Релиз фильма был запланирован на 5 апреля, но был сдвинут на 2 месяца из-за того, что студия решила, что фильм лучше сделать летним релизом.

Первоначально Мелисса МакКарти не могла сниматься из-за обязательств перед фильмом «Поймай толстуху, если сможешь» (2013) и сериалом «Майк и Молли» (2010). Но позже ситуация разрешилась.

В начале фильма героиня Сандры Буллок, переключая каналы по телевизору, останавливается на фильмах «Грязная игра» (1978) и «Матрица: Перезагрузка» (2003).

В туалете клуба, когда Маллинс лишает напарницу половины одежды, в отражении зеркала видно, что блузка Эшбёрн то заправлена в юбку, то снова расправлена.

В баре, где Маллинс крадет файл у Эшбёрн, на двери висит знак: «Счастливый час с 3-6». Счастливый час является незаконным в штате Массачусетс.

После того как Сандра делает трахеотомию задыхающемуся посетителю ресторана, на ее рубашку брызгает кровь. В следующей сцене, когда она разговаривает с командой скорой помощи, крови уже нет.

У комнаты для допросов Маллинс жалуется на заколку Эшбёрн, после чего Эшбёрн вытаскивает заколку и убирает волосы за правое ухо. В последующих сценах ее волосы постоянно меняют свое положение.

Свернуть
Скриншоты
Изображение
Изображение
Изображение
Изображение
Свернуть


Последний раз редактировалось krazz 2013-10-30 15:47, всего редактировалось 1 раз.
Не в сети
Профиль  
 Добавлено: 2013-10-24 07:54 (спустя 3 часа)
Аватара пользователя
Стаж: 7 лет 9 месяцев
Сообщений: 187
Лайков: 9
фильм гавно, не качайте 10 гигов гавна
Не в сети
Профиль  
 Добавлено: 2013-10-28 22:12 (спустя 4 дня)
Стаж: 5 лет 3 месяца
Сообщений: 150
Лайков: 1
Ненавижу эту жирную!Фильм отстой!
Не в сети
Профиль  
 Добавлено: 2013-10-28 22:44 (спустя 32 минуты)
Аватара пользователя
Стаж: 8 лет 9 месяцев
Сообщений: 1170
Спасибок: 1294
Лайков: 7
постер говорит сам за себя
Не в сети
Профиль  
 Добавлено: 2013-10-30 06:44 (спустя 1 день 7 часов)
Аватара пользователя
Стаж: 8 лет
Возраст: 29
Сообщений: 60
Тупое говно.
Не в сети
Профиль  
 Добавлено: 2013-10-30 15:50 (спустя 9 часов)
Аватара пользователя
Стаж: 9 лет 1 месяц
Сообщений: 7977
Спасибок: 122203
Лайков: 1191
Торрент обновлен. Добавлена DTS дорожка. Полный кинотеатральный перевод!
Не в сети
Профиль  
 Добавлено: 2013-10-31 00:09 (спустя 8 часов)
Аватара пользователя
Стаж: 9 лет 3 месяца
Возраст: 42
Сообщений: 589
Спасибок: 11588
Лайков: 4
Тупое говно.
Фильм отстой!
10 гигов гавна
Отзывы и рейтинг на Кинопоиске и IMDB говорят, что не все так плохо...)
Не в сети
Профиль  
 Добавлено: 2013-10-31 00:23 (спустя 14 минут)
Аватара пользователя
Стаж: 6 лет 4 месяца
Сообщений: 22
Спасибок: 94
Лайков: 1

Sobakevic:

фильм гавно, не качайте 10 гигов гавна
У тя инет с мобильника? качаешь каждый мегабайт за деньги и смотришь в дерьмовом разрешении на том же мобильнике?))

09лёшик09:

Ненавижу эту жирную!Фильм отстой!
Сказал тощий задрот и пощел мусолить свой красный хрящ!))

SOV.nn:

Тупое говно.
Очень "приятно" с тобой познакомится-Я Виниамин))
_________________
Действительно, в России две беды. Если с одной из них еще можно как-то справиться при помощи асфальтоукладчиков и дорожных катков, то вот с дорогами-то все намного труднее.
 DJoKeR777 нравится это.
Не в сети
Профиль  
 Добавлено: 2013-11-03 18:26 (спустя 3 дня)
Стаж: 6 лет 3 месяца
Сообщений: 4
Лайков: 1
фильм супер.посмеялся от души
 DJoKeR777 нравится это.
Не в сети
Профиль  
Начать новую темуОтветить на тему  [ Сообщений: 9 ] 
Вы не можете начинать темы
Вы не можете отвечать на сообщения
Вы не можете редактировать свои сообщения
Вы не можете удалять свои сообщения