Правила форума

  • В этом разделе создание новых тем Запрещено.
  • Для создания новых тем пользуйтесь Корневым разделом DVD и HD фильмы.
Начать новую темуОтветить на тему  [ Сообщений: 6 ] 
Торрент файл
Размер: 9.26 GB • Зарегистрирован: 5 лет 8 месяцев • Статус: Проверено
Скачан: 496 раз • Желающих скачать: 0 • Поблагодарили: 66 раз
 Раздают: 0  |  0 KB/s  ]   Качают: 0  |  0 KB/s  ] 
 Полного источника не было 8 месяцев 
Сообщения
 Добавлено: 2011-04-02 19:32
Аватара пользователя
Стаж: 8 лет
Возраст: 23
Сообщений: 2472
Спасибок: 27961
Лайков: 2
Король говорит! / The King's Speech


«When God couldn't save The King, The Queen turned to someone who could.»



Изображение
Год выпуска: 2010
Страна: Изображение США, Изображение Великобритания, Изображение Австралия
Жанр: драма, биография, история
Продолжительность:
01:58:29

Перевод: Профессиональный (полное дублирование) [лицензия]

Режиссер: Том Хупер
Сценарий: Дэвид Сайдлер
Продюсер: Эмиль Шерман, Гарет Унвин, Айэйн Каннинг, Пол Бретт, Дипак Сикка
Оператор: Дэниэл Коэн
Композитор: Александр Деспла

В ролях:
Колин Фёрт (King George VI), Джеффри Раш (Lionel Logue), Хелена Бонем Картер (Queen Elizabeth), Гай Пирс (King Edward VIII), Майкл Гэмбон (King George V), Патрик Райкарт (Lord Wigram), Тимоти Сполл (Winston Churchill), Роджер Пэррот (Neville Chamberlain), Клер Блум (Queen Mary), Дженнифер Эль (Myrtle Logue), Дерек Джекоби (Archbishop Cosmo Lang), Роберт Порталь (Equerry)
Дублёры: Игорь Тарадайкин (King George VI) (King George VI), Борис Клюев (Lionel Logue) (Lionel Logue), Елена Соловьева (Queen Elizabeth) (Queen Elizabeth), Анатолий Белый (King Edward VIII) (King Edward VIII), Александр Новиков (King George V) (King George V), Петр Тобилевич (Lord Wigram) (Lord Wigram), Алексей Колган (Winston Churchill) (Winston Churchill), Никита Прозоровский (Neville Chamberlain) (Neville Chamberlain), Ольга Гаспарова (Queen Mary) (Queen Mary), Алена Ивченко (Myrtle Logue) (Myrtle Logue), Олег Форостенко (Archbishop Cosmo Lang) (Archbishop Cosmo Lang), Андрей Казанцев

Описание: Сюжет ленты расскажет о герцоге, который готовится вступить в должность британского короля Георга VI, отца нынешней королевы Елизаветы II. После того, как его брат отрекается от престола, герой неохотно соглашается на трон. Измученный страшным нервным заиканием и сомнениями в своих способностях руководить страной, Георг обращается за помощью к неортодоксальному логопеду по имени Лайонел Лог. После серии неожиданных техник и в результате дружбы двух непохожих людей, герой наконец обретает свой королевский голос и смело ведет Англию на войну.


Изображение: 8.328 (14 990)
Изображение: 8.40 (64 756)

MPAA: Изображение - Лицам до 17 лет обязательно присутствие взрослого

Доп. Информация

Бюджет: $15 000 000
Сборы в США: $135 453 143
Сборы в России: $1 619 989
Сборы в мире: $373 749 967
Мировая премьера: 6 сентября 2010
Изображение Релиз на DVD: 7 апреля 2011, «CP-Digital»
Изображение Релиз на Blu-ray: 7 апреля 2011, «CP-Digital»

Свернуть

Качество: BDRip 1080p R5

Формат: MKV
Видео: MPEG-4 AVC, 8092 Кбит/с, 1920x1080, 23.976 кадр/с
Аудио: Русский (DTS, 6 ch, 768 Кбит/с) / Русский (AC3, 6 ch, 384 Кбит/с) / Русский (AC3, 6 ch, 448 Кбит/с) / Английский (DTS, 6 ch, 1536 Кбит/с)
Субтитры: Русские, английские
Изображение


Знаете ли Вы, что...
  • Гай Пирс играет Эдуарда VIII - старшего брата короля Георга VI (Колин Ферт). В действительности Пирс на 7 лет моложе Колина Ферта.
  • Король Георг VI умер от рака легких в 1952 году.
  • Елизавета Боуз-Лайон (жена короля Георга VI) пережила его на 50 лет и вошла в историю под именем Королева-Мать (Queen Mother).
Свернуть
Награды

Оскар, 2011 год
Победитель (4):
Лучший фильм
Лучшая мужская роль (Колин Фёрт)
Лучший режиссер (Том Хупер)
Лучший сценарий
Номинации (8):
Лучшая мужская роль второго плана (Джеффри Раш)
Лучшая женская роль второго плана (Хелена Бонем Картер)
Лучшая работа оператора
Лучшие декорации
Лучшие костюмы
Лучший звук
Лучший монтаж
Лучший саундтрек


Золотой глобус, 2011 год
Победитель (1):
Лучшая мужская роль (драма) (Колин Фёрт)
Номинации (6):
Лучший фильм (драма)
Лучшая мужская роль второго плана (Джеффри Раш)
Лучшая женская роль второго плана (Хелена Бонем Картер)
Лучший режиссер (Том Хупер)
Лучший сценарий
Лучший саундтрек


Британская академия, 2011 год
Победитель (7):
Лучший фильм
Лучшая мужская роль (Колин Фёрт)
Лучшая мужская роль второго плана (Джеффри Раш)
Лучшая женская роль второго плана (Хелена Бонем Картер)
Лучший оригинальный сценарий
Премия имени Энтони Эскуита за достижения в создании музыки к фильму
Премия имени Александра Корды за самый выдающийся британский фильм года
Номинации (7):
Лучшая работа оператора (Дэниэл Коэн)
Лучшие костюмы
Лучший звук
Лучший монтаж
Лучшая работа художника-постановщика (Джуди Фарр, Ив Стюарт)
Лучший грим/прически
Премия имени Дэвида Лина за достижения в режиссуре (Том Хупер)
Свернуть
BDInfo

General
Complete name : Korol.govorit.2010.x264.BDRip.1080p.mkv
Format : Matroska
File size : 9.26 GiB
Duration : 1h 58mn
Overall bit rate : 11.2 Mbps
Encoded date : UTC 2011-04-02 03:23:21
Writing application : mkvmerge v4.6.0 ('Still Crazy After All These Years') сборка от Mar 10 2011 02:50:32
Writing library : libebml v1.2.0 + libmatroska v1.1.0

Video
ID : 1
Format : AVC
Format/Info : Advanced Video Codec
Format profile : High@L4.1
Format settings, CABAC : Yes
Format settings, ReFrames : 4 frames
Codec ID : V_MPEG4/ISO/AVC
Duration : 1h 58mn
Bit rate : 8 092 Kbps
Width : 1 920 pixels
Height : 1 080 pixels
Display aspect ratio : 16:9
Frame rate : 23.976 fps
Color space : YUV
Chroma subsampling : 4:2:0
Bit depth : 8 bits
Scan type : Progressive
Bits/(Pixel*Frame) : 0.163
Stream size : 6.51 GiB (70%)
Writing library : x264 core 114 r1913 5fd3dce
Encoding settings : cabac=1 / ref=4 / deblock=1:0:0 / analyse=0x3:0x113 / me=umh / subme=8 / psy=1 / psy_rd=1.00:0.00 / mixed_ref=1 / me_range=16 / chroma_me=1 / trellis=1 / 8x8dct=1 / cqm=0 / deadzone=21,11 / fast_pskip=1 / chroma_qp_offset=-2 / threads=12 / sliced_threads=0 / nr=0 / decimate=1 / interlaced=0 / constrained_intra=0 / bframes=3 / b_pyramid=2 / b_adapt=2 / b_bias=0 / direct=3 / weightb=1 / open_gop=0 / weightp=2 / keyint=240 / keyint_min=24 / scenecut=40 / intra_refresh=0 / rc_lookahead=50 / rc=2pass / mbtree=1 / bitrate=8092 / ratetol=1.0 / qcomp=0.60 / qpmin=0 / qpmax=69 / qpstep=4 / cplxblur=20.0 / qblur=0.5 / ip_ratio=1.40 / aq=1:1.00

Audio #1
ID : 2
Format : DTS
Format/Info : Digital Theater Systems
Codec ID : A_DTS
Duration : 1h 58mn
Bit rate mode : Constant
Bit rate : 755 Kbps
Channel(s) : 6 channels
Channel positions : Front: L C R, Side: L R, LFE
Sampling rate : 48.0 KHz
Bit depth : 24 bits
Compression mode : Lossy
Stream size : 639 MiB (7%)
Title : Дублированный
Language : Russian

Audio #2
ID : 3
Format : AC-3
Format/Info : Audio Coding 3
Mode extension : CM (complete main)
Codec ID : A_AC3
Duration : 1h 58mn
Bit rate mode : Constant
Bit rate : 384 Kbps
Channel(s) : 6 channels
Channel positions : Front: L C R, Side: L R, LFE
Sampling rate : 48.0 KHz
Bit depth : 16 bits
Compression mode : Lossy
Stream size : 325 MiB (3%)
Title : Профессиональный двухголосый
Language : Russian

Audio #3
ID : 4
Format : AC-3
Format/Info : Audio Coding 3
Mode extension : CM (complete main)
Codec ID : A_AC3
Duration : 1h 58mn
Bit rate mode : Constant
Bit rate : 448 Kbps
Channel(s) : 6 channels
Channel positions : Front: L C R, Side: L R, LFE
Sampling rate : 48.0 KHz
Bit depth : 16 bits
Compression mode : Lossy
Stream size : 380 MiB (4%)
Title : Любительский одноголосый (VadimNaz)
Language : Russian

Audio #4
ID : 5
Format : DTS
Format/Info : Digital Theater Systems
Codec ID : A_DTS
Duration : 1h 58mn
Bit rate mode : Constant
Bit rate : 1 510 Kbps
Channel(s) : 6 channels
Channel positions : Front: L C R, Side: L R, LFE
Sampling rate : 48.0 KHz
Bit depth : 24 bits
Compression mode : Lossy
Delay relative to video : 11ms
Stream size : 1.25 GiB (13%)
Language : English

Text #1
ID : 6
Format : UTF-8
Codec ID : S_TEXT/UTF8
Codec ID/Info : UTF-8 Plain Text
Language : Russian

Text #2
ID : 7
Format : UTF-8
Codec ID : S_TEXT/UTF8
Codec ID/Info : UTF-8 Plain Text
Language : English

Свернуть
Скриншоты

Изображение
Изображение
Изображение

Свернуть

_________________
Изображение

Изображение
Не в сети
Профиль  
 Добавлено: 2011-04-03 04:16 (спустя 8 часов)
Кинокомментатор
Аватара пользователя
Стаж: 9 лет
Сообщений: 1331
Лайков: 52
мммммммммммммм!) завтра посмотрю сто балов!) ммм!)
Не в сети
Профиль  
 Добавлено: 2011-06-04 23:11 (спустя 2 месяца 1 день)
PR-Group
Аватара пользователя
Стаж: 8 лет 1 месяц
Сообщений: 690
Спасибок: 500
Лайков: 11
Достойный фильм.
Всем дрессировщикам, преподаватлям и родителям посвящается.
Браво. :bra_vo:
Не в сети
Профиль  
 Добавлено: 2012-03-24 15:48 (спустя 9 месяцев)
Аватара пользователя
Стаж: 6 лет 10 месяцев
Сообщений: 11
Пожалуйста раздайте
Не в сети
Профиль  
 Добавлено: 2014-01-10 15:38 (спустя 1 год 9 месяцев)
Аватара пользователя
Стаж: 7 лет 10 месяцев
Сообщений: 64
Лайков: 2
Раздайте пожалуйста)
Не в сети
Профиль  
 Добавлено: 2015-03-03 21:34 (спустя 1 год 1 месяц)
Аватара пользователя
Стаж: 7 лет 7 месяцев
Сообщений: 286
Лайков: 29
раздайте плиз
Не в сети
Профиль  
Начать новую темуОтветить на тему  [ Сообщений: 6 ] 
Вы не можете начинать темы
Вы не можете отвечать на сообщения
Вы не можете редактировать свои сообщения
Вы не можете удалять свои сообщения