Правила форума

  • В этом разделе создание новых тем Запрещено.
  • Для создания новых тем пользуйтесь Корневым разделом DVD и HD фильмы.
Начать новую темуОтветить на тему  [ 1 сообщение ] 
Торрент файл
Размер: 6.09 GB • Зарегистрирован: 5 лет 8 месяцев • Статус: Проверено
Скачан: 90 раз • Желающих скачать: 0 • Поблагодарили: 16 раз
 Раздают: 0  |  0 KB/s  ]   Качают: 0  |  0 KB/s  ] 
 Полного источника не было 3 года 2 месяца 
Сообщения
 Добавлено: 2011-04-02 19:46
Аватара пользователя
Стаж: 8 лет
Возраст: 23
Сообщений: 2472
Спасибок: 27962
Лайков: 2
Король говорит! / The King's Speech


«When God couldn't save The King, The Queen turned to someone who could.»



Изображение
Год выпуска: 2010
Страна: Изображение США, Изображение Великобритания, Изображение Австралия
Жанр: драма, биография, история
Продолжительность:
01:58:29

Перевод: Профессиональный (полное дублирование) [лицензия]

Режиссер: Том Хупер
Сценарий: Дэвид Сайдлер
Продюсер: Эмиль Шерман, Гарет Унвин, Айэйн Каннинг, Пол Бретт, Дипак Сикка
Оператор: Дэниэл Коэн
Композитор: Александр Деспла

В ролях:
Колин Фёрт (King George VI), Джеффри Раш (Lionel Logue), Хелена Бонем Картер (Queen Elizabeth), Гай Пирс (King Edward VIII), Майкл Гэмбон (King George V), Патрик Райкарт (Lord Wigram), Тимоти Сполл (Winston Churchill), Роджер Пэррот (Neville Chamberlain), Клер Блум (Queen Mary), Дженнифер Эль (Myrtle Logue), Дерек Джекоби (Archbishop Cosmo Lang), Роберт Порталь (Equerry)
Дублёры: Игорь Тарадайкин (King George VI) (King George VI), Борис Клюев (Lionel Logue) (Lionel Logue), Елена Соловьева (Queen Elizabeth) (Queen Elizabeth), Анатолий Белый (King Edward VIII) (King Edward VIII), Александр Новиков (King George V) (King George V), Петр Тобилевич (Lord Wigram) (Lord Wigram), Алексей Колган (Winston Churchill) (Winston Churchill), Никита Прозоровский (Neville Chamberlain) (Neville Chamberlain), Ольга Гаспарова (Queen Mary) (Queen Mary), Алена Ивченко (Myrtle Logue) (Myrtle Logue), Олег Форостенко (Archbishop Cosmo Lang) (Archbishop Cosmo Lang), Андрей Казанцев

Описание: Сюжет ленты расскажет о герцоге, который готовится вступить в должность британского короля Георга VI, отца нынешней королевы Елизаветы II. После того, как его брат отрекается от престола, герой неохотно соглашается на трон. Измученный страшным нервным заиканием и сомнениями в своих способностях руководить страной, Георг обращается за помощью к неортодоксальному логопеду по имени Лайонел Лог. После серии неожиданных техник и в результате дружбы двух непохожих людей, герой наконец обретает свой королевский голос и смело ведет Англию на войну.


Изображение: 8.328 (14 990)
Изображение: 8.40 (64 756)

MPAA: Изображение - Лицам до 17 лет обязательно присутствие взрослого

Доп. Информация

Бюджет: $15 000 000
Сборы в США: $135 453 143
Сборы в России: $1 619 989
Сборы в мире: $373 749 967
Мировая премьера: 6 сентября 2010
Изображение Релиз на DVD: 7 апреля 2011, «CP-Digital»
Изображение Релиз на Blu-ray: 7 апреля 2011, «CP-Digital»

Свернуть

Качество: BDRip 720p R5

Формат: MKV
Видео: AVC, 5095 kb/s, 1280x720, 23.976 кадр/с
Аудио: Russian: DTS, 755 kb/s (6 ch) / English: DTS, 1510 kb/s (6 ch)
Субтитры: Russian, English
Изображение


Знаете ли Вы, что...
  • Гай Пирс играет Эдуарда VIII - старшего брата короля Георга VI (Колин Ферт). В действительности Пирс на 7 лет моложе Колина Ферта.
  • Король Георг VI умер от рака легких в 1952 году.
  • Елизавета Боуз-Лайон (жена короля Георга VI) пережила его на 50 лет и вошла в историю под именем Королева-Мать (Queen Mother).
Свернуть
Награды

Оскар, 2011 год
Победитель (4):
Лучший фильм
Лучшая мужская роль (Колин Фёрт)
Лучший режиссер (Том Хупер)
Лучший сценарий
Номинации (8):
Лучшая мужская роль второго плана (Джеффри Раш)
Лучшая женская роль второго плана (Хелена Бонем Картер)
Лучшая работа оператора
Лучшие декорации
Лучшие костюмы
Лучший звук
Лучший монтаж
Лучший саундтрек


Золотой глобус, 2011 год
Победитель (1):
Лучшая мужская роль (драма) (Колин Фёрт)
Номинации (6):
Лучший фильм (драма)
Лучшая мужская роль второго плана (Джеффри Раш)
Лучшая женская роль второго плана (Хелена Бонем Картер)
Лучший режиссер (Том Хупер)
Лучший сценарий
Лучший саундтрек


Британская академия, 2011 год
Победитель (7):
Лучший фильм
Лучшая мужская роль (Колин Фёрт)
Лучшая мужская роль второго плана (Джеффри Раш)
Лучшая женская роль второго плана (Хелена Бонем Картер)
Лучший оригинальный сценарий
Премия имени Энтони Эскуита за достижения в создании музыки к фильму
Премия имени Александра Корды за самый выдающийся британский фильм года
Номинации (7):
Лучшая работа оператора (Дэниэл Коэн)
Лучшие костюмы
Лучший звук
Лучший монтаж
Лучшая работа художника-постановщика (Джуди Фарр, Ив Стюарт)
Лучший грим/прически
Премия имени Дэвида Лина за достижения в режиссуре (Том Хупер)
Свернуть
BDInfo

Полное имя : Korol.Govorit.2010.BDRip.720p.mkv
Формат : Matroska
Размер файла : 6,09 Гбайт
Продолжительность : 1 ч. 58 м.
Общий поток : 7361 Кбит/сек
Название фильма : Король говорит! / The King's Speech (2010) BDRip 720p
Дата кодирования : UTC 2011-04-02 10:07:55
Программа кодирования : mkvmerge v4.6.0 ('Still Crazy After All These Years') сборка от Mar 10 2011 02:50:32
Библиотека кодирования : libebml v1.2.0 + libmatroska v1.1.0

Видео
Идентификатор : 1
Формат : AVC
Формат/Информация : Advanced Video Codec
Профиль формата : High@L4.1
Параметр CABAC формата : Да
Параметр ReFrames формата : 5 кадры
Идентификатор кодека : V_MPEG4/ISO/AVC
Продолжительность : 1 ч. 58 м.
Битрейт : 5095 Кбит/сек
Ширина : 1280 пикс.
Высота : 720 пикс.
Соотношение сторон : 16:9
Частота кадров : 23,976 кадр/сек
Цветовое пространство : YUV
Подвыборка цветности : 4:2:0
Битовая глубина : 8 бит
Тип развёртки : Прогрессивная
Бит/(Пиксели*Кадры) : 0.231
Размер потока : 4,10 Гбайт (67%)
Заголовок : Korol.Govorit.2010.BDRip.720p
Библиотека кодирования : x264 core 114 r1913 5fd3dce
Настройки программы : cabac=1 / ref=5 / deblock=1:0:0 / analyse=0x3:0x113 / me=umh / subme=8 / psy=1 / psy_rd=1.00:0.00 / mixed_ref=1 / me_range=16 / chroma_me=1 / trellis=1 / 8x8dct=1 / cqm=0 / deadzone=21,11 / fast_pskip=1 / chroma_qp_offset=-2 / threads=12 / sliced_threads=0 / nr=0 / decimate=1 / interlaced=0 / constrained_intra=0 / bframes=3 / b_pyramid=2 / b_adapt=2 / b_bias=0 / direct=3 / weightb=1 / open_gop=0 / weightp=2 / keyint=240 / keyint_min=24 / scenecut=40 / intra_refresh=0 / rc_lookahead=50 / rc=2pass / mbtree=1 / bitrate=5095 / ratetol=1.0 / qcomp=0.60 / qpmin=0 / qpmax=69 / qpstep=4 / cplxblur=20.0 / qblur=0.5 / ip_ratio=1.40 / aq=1:1.00
Язык : English

Аудио #1
Идентификатор : 2
Формат : DTS
Формат/Информация : Digital Theater Systems
Идентификатор кодека : A_DTS
Продолжительность : 1 ч. 58 м.
Вид битрейта : Постоянный
Битрейт : 755 Кбит/сек
Канал(ы) : 6 канала(ов)
Расположение каналов : Front: L C R, Side: L R, LFE
Частота : 48,0 КГц
Битовая глубина : 24 бит
Метод сжатия : С потерями
Задержка видео : 11 мс.
Размер потока : 639 Мбайт (10%)
Заголовок : DTS 5.1 @ 755 kb/s [Russian DUB R5]
Язык : Russian

Аудио #2
Идентификатор : 3
Формат : DTS
Формат/Информация : Digital Theater Systems
Идентификатор кодека : A_DTS
Продолжительность : 1 ч. 58 м.
Вид битрейта : Постоянный
Битрейт : 1510 Кбит/сек
Канал(ы) : 6 канала(ов)
Расположение каналов : Front: L C R, Side: L R, LFE
Частота : 48,0 КГц
Битовая глубина : 24 бит
Метод сжатия : С потерями
Задержка видео : 22 мс.
Размер потока : 1,25 Гбайт (21%)
Заголовок : DTS 5.1 @ 1510 kb/s [English]
Язык : English

Текст #1
Идентификатор : 4
Формат : UTF-8
Идентификатор кодека : S_TEXT/UTF8
Идентификатор кодека/Информация : UTF-8 Plain Text
Заголовок : Russian
Язык : Russian

Текст #2
Идентификатор : 5
Формат : UTF-8
Идентификатор кодека : S_TEXT/UTF8
Идентификатор кодека/Информация : UTF-8 Plain Text
Заголовок : English
Язык : English

Свернуть
Скриншоты

Изображение
Изображение
Изображение

Свернуть

_________________
Изображение

Изображение
Не в сети
Профиль  
Начать новую темуОтветить на тему  [ 1 сообщение ] 
Вы не можете начинать темы
Вы не можете отвечать на сообщения
Вы не можете редактировать свои сообщения
Вы не можете удалять свои сообщения