Правила форума

  • В этом разделе создание новых тем Запрещено.
  • Для создания новых тем пользуйтесь Корневым разделом DVD и HD фильмы.
Начать новую темуОтветить на тему  [ 1 сообщение ] 
Торрент файл
Размер: 4.85 GB • Зарегистрирован: 4 года • Статус: Проверено
Скачан: 28 раз • Желающих скачать: 0 • Поблагодарили: 12 раз
 Раздают: 0  |  0 KB/s  ]   Качают: 0  |  0 KB/s  ] 
 Полного источника не было 1 год 10 месяцев 
Сообщения
 Добавлено: 2012-11-23 14:45
Top-releaser
Аватара пользователя
Стаж: 6 лет 7 месяцев
Сообщений: 2078
Спасибок: 3230
Лайков: 9
Изображение

Королева проклятых
Queen of the Damned


Год выпуска: 2002
Страна: США, Австралия
Слоган: «Мать всех вампиров»
Жанр: ужасы, фэнтези, музыка
Продолжительность: 01:42:17
Перевод: Профессиональный (полное дублирование)
Режиссер: Майкл Раймер
Сценарий: Скотт Эбботт, Майкл Петрони, Энн Райс
Продюсер: Хорхе Саралеги, Су Армстронг, Брюс Берман, Чаннинг Дунги, Билл Гербер
Оператор: Иэн Бейкер
Композитор: Джонатан Дэвис, Ричард Гиббс
В ролях: Алия, Стюарт Таунсенд, Маргерит Моро, Венсан Перес, Пол МакГэнн, Лена Улин, Кристиан Мэнон, Клаудия Блэк, Брюс Спенс, Мэттью Ньютон, Тириел Мора, Меган Дорман
Бюджет: $35 000 000
Сборы в США: $30 336 800
Сборы в мире: $45 479 110
Мировая премьера: 10 января 2002
Релиз на DVD: 5 июля 2012, «CP Дистрибуция»
Описание: Легендарный вампир Лестат пробудился после долгих лет сна и решил выйти в свет. Теперь он имеет возможность перемещаться среди смертных в образе некой рок-звезды. Его опьяняющая музыка - приманка популярна во всем мире, и в конечном счете, доходит до ушей дремлющей Королевы Акаши в ее склепе во льдах Арктики.
Мать всех вампиров, Акаша отдыхала несколько столетий, ожидая подходящее время для того, чтобы подняться и вновь захватить власть по всему миру. Музыка Лестата - открытие, которого она ожидала.

Раздача группы: Изображение

Изображение User Rating: 6.627 (12 111)
Изображение User Rating: 4.90 (30 327)
MPAA: R - Лицам до 17 лет обязательно присутствие взрослого
Качество: HDTVRip
Формат: Matroska
Видео: AVC; 1280x720 (16:9); 5595 Kbps; 23,976 fps; 0,253 bit/pixel
Аудио №1: Russian; AC3; 224 Kbps; CBR; 2 ch
Аудио №2: Russian; AC3; 448 Kbps; CBR; 6 ch
Аудио №3: English; AC3; 384 Kbps; CBR; 6 ch

Субтитры: Russian

MediaInfo
Общее
Уникальный идентификатор : 190701830862262617729777211593327462415 (0x8F77D62EBDAE451BB32C8B5638FD480F)
Полное имя : Z:\WWW\TR-Downloads\Queen.of.the.Damned.720p[R.G.Daredevil].mkv
Формат : Matroska
Версия формата : Version 2
Размер файла : 4,85 Гбайт
Продолжительность : 1 ч. 42 м.
Общий поток : 6787 Кбит/сек
Название фильма : Released by CClassicHD.Net
Дата кодирования : UTC 2011-04-16 14:09:52
Программа кодирования : mkvmerge v2.9.8 ('C'est le bon') built on Aug 13 2009 12:49:06
Библиотека кодирования : libebml v0.7.7 + libmatroska v0.8.1

Видео
Идентификатор : 1
Формат : AVC
Формат/Информация : Advanced Video Codec
Профиль формата : High@L4.1
Параметр CABAC формата : Да
Параметр ReFrames формата : 5 кадров
Идентификатор кодека : V_MPEG4/ISO/AVC
Продолжительность : 1 ч. 42 м.
Битрейт : 5786 Кбит/сек
Ширина : 1280 пикселей
Высота : 720 пикселей
Соотношение сторон : 16:9
Частота кадров : 23,976 кадра/сек
Цветовое пространство : YUV
Субдискретизация насыщенности : 4:2:0
Битовая глубина : 8 бит
Тип развёртки : Прогрессивная
Бит/(Пиксели*Кадры) : 0.262
Размер потока : 4,00 Гбайт (82%)
Заголовок : Queen.of.the.Damned.2002.720p.HDTVRip.x264.AC3.Eng.2xRus.by.CClassicHD.NET
Библиотека кодирования : x264 core 114 r1913 5fd3dce
Настройки программы : cabac=1 / ref=5 / deblock=1:0:0 / analyse=0x3:0x133 / me=umh / subme=8 / psy=1 / psy_rd=1.00:0.00 / mixed_ref=1 / me_range=16 / chroma_me=1 / trellis=1 / 8x8dct=1 / cqm=0 / deadzone=21,11 / fast_pskip=0 / chroma_qp_offset=-2 / threads=12 / sliced_threads=0 / nr=0 / decimate=1 / interlaced=0 / constrained_intra=0 / bframes=3 / b_pyramid=2 / b_adapt=1 / b_bias=0 / direct=1 / weightb=1 / open_gop=0 / weightp=2 / keyint=240 / keyint_min=24 / scenecut=40 / intra_refresh=0 / rc_lookahead=40 / rc=2pass / mbtree=1 / bitrate=5786 / ratetol=1.0 / qcomp=0.60 / qpmin=0 / qpmax=69 / qpstep=4 / cplxblur=20.0 / qblur=0.5 / ip_ratio=1.40 / aq=1:1.00
Язык : English
Default : Нет
Forced : Нет

Аудио #1
Идентификатор : 2
Формат : AC-3
Формат/Информация : Audio Coding 3
Расширение режима : CM (complete main)
Параметр Endianness формата : Big
Идентификатор кодека : A_AC3
Продолжительность : 1 ч. 42 м.
Вид битрейта : Постоянный
Битрейт : 224 Кбит/сек
Каналы : 2 канала
Расположение каналов : Front: L R
Частота : 48,0 КГц
Битовая глубина : 16 бит
Метод сжатия : С потерями
Задержка видео : 28 мс.
Размер потока : 164 Мбайт (3%)
Заголовок : Rus: AC3 2.0, 224kbps - Профессиональный (Полное Дублирование)
Язык : Russian
Default : Да
Forced : Нет

Аудио #2
Идентификатор : 3
Формат : AC-3
Формат/Информация : Audio Coding 3
Расширение режима : CM (complete main)
Параметр Endianness формата : Big
Идентификатор кодека : A_AC3
Продолжительность : 1 ч. 42 м.
Вид битрейта : Постоянный
Битрейт : 448 Кбит/сек
Каналы : 6 каналов
Расположение каналов : Front: L C R, Side: L R, LFE
Частота : 48,0 КГц
Битовая глубина : 16 бит
Метод сжатия : С потерями
Задержка видео : 12 мс.
Размер потока : 328 Мбайт (7%)
Заголовок : Rus: AC3 5.1, 448kbps - Профессиональный (Многоголосый, закадровый)
Язык : Russian
Default : Нет
Forced : Нет

Аудио #3
Идентификатор : 4
Формат : AC-3
Формат/Информация : Audio Coding 3
Расширение режима : CM (complete main)
Параметр Endianness формата : Big
Идентификатор кодека : A_AC3
Продолжительность : 1 ч. 42 м.
Вид битрейта : Постоянный
Битрейт : 384 Кбит/сек
Каналы : 6 каналов
Расположение каналов : Front: L C R, Side: L R, LFE
Частота : 48,0 КГц
Битовая глубина : 16 бит
Метод сжатия : С потерями
Задержка видео : 19 мс.
Размер потока : 281 Мбайт (6%)
Заголовок : Rus: AC3 5.1, 384kbps - Original
Язык : English
Default : Нет
Forced : Нет

Текст
Идентификатор : 5
Формат : UTF-8
Идентификатор кодека : S_TEXT/UTF8
Идентификатор кодека/Информация : UTF-8 Plain Text
Заголовок : Subtitles
Язык : Russian
Default : Да
Forced : Нет
Свернуть
"Знаете ли Вы, что..."
  • Студия «Warner Bros.» приобрела права на экранизацию трех первых книг Энн Райс из цикла «Вампирские хроники» на семь лет. За этот период на студии был создан фильм «Интервью с вампиром» (1994), а вот на создание киноверсий двух других книг у «Warner Bros.» оставался всего лишь один год. Тогда студия в срочном порядке наняла кинодраматургов, чтобы объединить «Вампира Лестата» и «Королеву проклятых» в один сценарий.
  • Роль Лестата предлагалась Тому Крузу, но он от нее отказался.
  • Певица Алия, исполнившая главную роль в этом фильме, погибла в авиакатастрофе вскоре после завершения съемок.
  • Уэс Бентли, уже получивший роль Лестата, выбыл из проекта. На смену Бентли пришел ирландский актер Стюарт Таунсенд.
  • За Лестата в фильме поет Джонатан Дэвис из группы «Korn». Однако по условиям контракта песни в исполнении Дэвиса не могли звучать на саундтреке картины. В итоге сочиненные Дэвисом и Ричардом Гиббсом пять композиций были записаны другими певцами.
  • Заменителем крови в фильме стал вишневый сок.
  • На роль Лестат также рассматривалась кандидатура Джоша Хартнетта.
Свернуть
Скриншоты

Изображение
Изображение
Изображение
Изображение
Изображение
Изображение
Свернуть
Не в сети
Профиль  
Начать новую темуОтветить на тему  [ 1 сообщение ] 
Вы не можете начинать темы
Вы не можете отвечать на сообщения
Вы не можете редактировать свои сообщения
Вы не можете удалять свои сообщения