Правила форума

  • В этом разделе создание новых тем Запрещено.
  • Для создания новых тем пользуйтесь Корневым разделом DVD и HD фильмы.
Начать новую темуОтветить на тему  [ Сообщений: 2 ] 
Торрент файл
Размер: 24.78 GB • Зарегистрирован: 4 года • Статус: Проверено
Скачан: 20 раз • Желающих скачать: 0 • Поблагодарили: 8 раз
 Раздают: 0  |  0 KB/s  ]   Качают: 0  |  0 KB/s  ] 
 Полного источника не было 3 года 2 месяца 
Сообщения
 Добавлено: 2012-11-23 15:08
Top-releaser
Аватара пользователя
Стаж: 6 лет 7 месяцев
Сообщений: 2078
Спасибок: 3230
Лайков: 9
Изображение

Королева проклятых
Queen of the Damned


Год выпуска: 2002
Страна: США, Австралия
Слоган: «Мать всех вампиров»
Жанр: ужасы, фэнтези, музыка
Продолжительность: 01:42:20
Перевод: Профессиональный (полное дублирование)
Режиссер: Майкл Раймер
Сценарий: Скотт Эбботт, Майкл Петрони, Энн Райс
Продюсер: Хорхе Саралеги, Су Армстронг, Брюс Берман, Чаннинг Дунги, Билл Гербер
Оператор: Иэн Бейкер
Композитор: Джонатан Дэвис, Ричард Гиббс
В ролях: Алия, Стюарт Таунсенд, Маргерит Моро, Венсан Перес, Пол МакГэнн, Лена Улин, Кристиан Мэнон, Клаудия Блэк, Брюс Спенс, Мэттью Ньютон, Тириел Мора, Меган Дорман
Бюджет: $35 000 000
Сборы в США: $30 336 800
Сборы в мире: $45 479 110
Мировая премьера: 10 января 2002
Релиз на DVD: 5 июля 2012, «CP Дистрибуция»
Описание: Легендарный вампир Лестат пробудился после долгих лет сна и решил выйти в свет. Теперь он имеет возможность перемещаться среди смертных в образе некой рок-звезды. Его опьяняющая музыка - приманка популярна во всем мире, и в конечном счете, доходит до ушей дремлющей Королевы Акаши в ее склепе во льдах Арктики.
Мать всех вампиров, Акаша отдыхала несколько столетий, ожидая подходящее время для того, чтобы подняться и вновь захватить власть по всему миру. Музыка Лестата - открытие, которого она ожидала.

Раздача группы: Изображение

Изображение User Rating: 6.627 (12 113)
Изображение User Rating: 4.90 (30 327)
MPAA: R - Лицам до 17 лет обязательно присутствие взрослого
Качество: BD-Remux, 1080p
Формат: Matroska
Видео: AVC; 1920x1080 (16:9); 23,976 fps
Аудио №1: Russian; AC3; 224 Kbps; CBR; 2 ch
Аудио №2: Russian; AC3; 448 Kbps; CBR; 6 ch
Аудио №3: Russian; AC3; 192 Kbps; CBR; 2 ch
Аудио №4: DTS-HD; VBR; 6 ch; 24 bit
Аудио №5: AC3; 192 Kbps; CBR; 2 ch

Субтитры: Russian, English

MediaInfo
Общее
Уникальный идентификатор : 240855902385557468581790743906194229436 (0xB53328D2F069AA9F9CD8CE3E3C7708BC)
Полное имя : Z:\WWW\TR-Downloads\Queen.of.the.Damned.Blu-Ray.Remux.1080p.[R.G.Daredevil].mkv
Формат : Matroska
Версия формата : Version 2
Размер файла : 24,8 Гбайт
Продолжительность : 1 ч. 42 м.
Режим общего битрейта : Переменный
Общий поток : 34,7 Мбит/сек
Дата кодирования : UTC 2012-09-12 17:15:35
Программа кодирования : mkvmerge v5.8.0 ('No Sleep / Pillow') built on Sep 2 2012 15:37:04
Библиотека кодирования : libebml v1.2.3 + libmatroska v1.3.0

Видео
Идентификатор : 1
Формат : AVC
Формат/Информация : Advanced Video Codec
Профиль формата : High@L4.1
Параметр CABAC формата : Да
Параметр ReFrames формата : 2 кадра
Режим смешивания : Container profile=Unknown@0.0
Идентификатор кодека : V_MPEG4/ISO/AVC
Продолжительность : 1 ч. 42 м.
Вид битрейта : Переменный
Битрейт : 31,4 Мбит/сек
Ширина : 1920 пикселей
Высота : 1080 пикселей
Соотношение сторон : 16:9
Частота кадров : 23,976 кадра/сек
Цветовое пространство : YUV
Субдискретизация насыщенности : 4:2:0
Битовая глубина : 8 бит
Тип развёртки : Прогрессивная
Бит/(Пиксели*Кадры) : 0.631
Размер потока : 22,4 Гбайт (90%)
Default : Нет
Forced : Нет

Аудио #1
Идентификатор : 2
Формат : AC-3
Формат/Информация : Audio Coding 3
Расширение режима : CM (complete main)
Параметр Endianness формата : Big
Идентификатор кодека : A_AC3
Продолжительность : 1 ч. 42 м.
Вид битрейта : Постоянный
Битрейт : 224 Кбит/сек
Каналы : 2 канала
Расположение каналов : Front: L R
Частота : 48,0 КГц
Битовая глубина : 16 бит
Метод сжатия : С потерями
Размер потока : 164 Мбайт (1%)
Заголовок : дубляж
Язык : Russian
Default : Да
Forced : Нет

Аудио #2
Идентификатор : 3
Формат : AC-3
Формат/Информация : Audio Coding 3
Расширение режима : CM (complete main)
Параметр Endianness формата : Big
Идентификатор кодека : A_AC3
Продолжительность : 1 ч. 42 м.
Вид битрейта : Постоянный
Битрейт : 448 Кбит/сек
Каналы : 6 каналов
Расположение каналов : Front: L C R, Side: L R, LFE
Частота : 48,0 КГц
Битовая глубина : 16 бит
Метод сжатия : С потерями
Размер потока : 328 Мбайт (1%)
Заголовок : MVO
Язык : Russian
Default : Нет
Forced : Нет

Аудио #3
Идентификатор : 4
Формат : AC-3
Формат/Информация : Audio Coding 3
Расширение режима : CM (complete main)
Параметр Endianness формата : Big
Идентификатор кодека : A_AC3
Продолжительность : 1 ч. 42 м.
Вид битрейта : Постоянный
Битрейт : 192 Кбит/сек
Каналы : 2 канала
Расположение каналов : Front: L R
Частота : 44,1 КГц
Битовая глубина : 16 бит
Метод сжатия : С потерями
Размер потока : 141 Мбайт (1%)
Заголовок : Леонид Векшин
Язык : Russian
Default : Нет
Forced : Нет

Аудио #4
Идентификатор : 5
Формат : DTS
Формат/Информация : Digital Theater Systems
Профиль формата : MA / Core
Идентификатор кодека : A_DTS
Продолжительность : 1 ч. 42 м.
Вид битрейта : Переменный
Битрейт : 1561 Кбит/сек / 1510 Кбит/сек
Каналы : 6 каналов
Расположение каналов : Front: L C R, Side: L R, LFE
Частота : 48,0 КГц
Битовая глубина : 24 бит
Метод сжатия : Без потерь / Lossy
Язык : English
Default : Нет
Forced : Нет

Аудио #5
Идентификатор : 6
Формат : AC-3
Формат/Информация : Audio Coding 3
Профиль формата : Dolby Digital
Расширение режима : CM (complete main)
Параметр Endianness формата : Big
Идентификатор кодека : A_AC3
Продолжительность : 1 ч. 42 м.
Вид битрейта : Постоянный
Битрейт : 192 Кбит/сек
Каналы : 2 канала
Расположение каналов : Front: L R
Частота : 48,0 КГц
Битовая глубина : 16 бит
Метод сжатия : С потерями
Размер потока : 141 Мбайт (1%)
Заголовок : комментарии
Язык : English
Default : Нет
Forced : Нет

Текст #1
Идентификатор : 7
Формат : UTF-8
Идентификатор кодека : S_TEXT/UTF8
Идентификатор кодека/Информация : UTF-8 Plain Text
Язык : Russian
Default : Нет
Forced : Нет

Текст #2
Идентификатор : 8
Формат : UTF-8
Идентификатор кодека : S_TEXT/UTF8
Идентификатор кодека/Информация : UTF-8 Plain Text
Заголовок : SDH
Язык : English
Default : Нет
Forced : Нет

Меню
00:00:00.000 : :Chapter 01
00:03:44.599 : :Chapter 02
00:06:48.157 : :Chapter 03
00:09:28.276 : :Chapter 04
00:12:29.165 : :Chapter 05
00:16:36.286 : :Chapter 06
00:20:09.583 : :Chapter 07
00:24:34.055 : :Chapter 08
00:29:09.038 : :Chapter 09
00:34:09.088 : :Chapter 10
00:37:30.164 : :Chapter 11
00:40:49.196 : :Chapter 12
00:45:11.792 : :Chapter 13
00:51:03.268 : :Chapter 14
00:55:10.473 : :Chapter 15
00:59:45.290 : :Chapter 16
01:04:18.646 : :Chapter 17
01:06:34.115 : :Chapter 18
01:09:09.311 : :Chapter 19
01:12:02.026 : :Chapter 20
01:16:46.226 : :Chapter 21
01:19:18.003 : :Chapter 22
01:21:48.278 : :Chapter 23
01:26:18.756 : :Chapter 24
01:30:07.068 : :Chapter 25
01:32:45.142 : :Chapter 26
01:37:04.485 : :Chapter 27
Свернуть
"Знаете ли Вы, что..."
  • Студия «Warner Bros.» приобрела права на экранизацию трех первых книг Энн Райс из цикла «Вампирские хроники» на семь лет. За этот период на студии был создан фильм «Интервью с вампиром» (1994), а вот на создание киноверсий двух других книг у «Warner Bros.» оставался всего лишь один год. Тогда студия в срочном порядке наняла кинодраматургов, чтобы объединить «Вампира Лестата» и «Королеву проклятых» в один сценарий.
  • Роль Лестата предлагалась Тому Крузу, но он от нее отказался.
  • Певица Алия, исполнившая главную роль в этом фильме, погибла в авиакатастрофе вскоре после завершения съемок.
  • Уэс Бентли, уже получивший роль Лестата, выбыл из проекта. На смену Бентли пришел ирландский актер Стюарт Таунсенд.
  • За Лестата в фильме поет Джонатан Дэвис из группы «Korn». Однако по условиям контракта песни в исполнении Дэвиса не могли звучать на саундтреке картины. В итоге сочиненные Дэвисом и Ричардом Гиббсом пять композиций были записаны другими певцами.
  • Заменителем крови в фильме стал вишневый сок.
  • На роль Лестат также рассматривалась кандидатура Джоша Хартнетта.
Свернуть
Скриншоты

Изображение
Изображение
Изображение
Изображение
Изображение
Изображение
Изображение
Свернуть
Не в сети
Профиль  
 Добавлено: 2012-11-24 03:40 (спустя 12 часов)
Аватара пользователя
Стаж: 6 лет 6 месяцев
Сообщений: 19961
Спасибок: 721
Лайков: 461
Была бы копия жива, встал бы на раздачу. Пичаль. :ny_tik:
_________________
It was I'am ... :jn_pu_sk:
Медали и Ордена
ИзображениеИзображение
Свернуть
Не в сети
Профиль  
Начать новую темуОтветить на тему  [ Сообщений: 2 ] 
Вы не можете начинать темы
Вы не можете отвечать на сообщения
Вы не можете редактировать свои сообщения
Вы не можете удалять свои сообщения