Правила форума

  • В этом разделе создание новых тем Запрещено.
  • Для создания новых тем пользуйтесь Корневым разделом DVD и HD фильмы.
Начать новую темуОтветить на тему  [ Сообщений: 6 ] 
Торрент файл
Размер: 10.56 GB • Зарегистрирован: 3 года 11 месяцев • Статус: Проверено
Скачан: 116 раз • Желающих скачать: 0 • Поблагодарили: 39 раз
 Раздают: 0  |  0 KB/s  ]   Качают: 0  |  0 KB/s  ] 
 Полного источника не было 7 часов 
Сообщения
 Добавлено: 2012-12-26 13:52
Модератор
Аватара пользователя
Стаж: 6 лет 10 месяцев
Возраст: 33
Сообщений: 5908
Спасибок: 61252
Лайков: 3540
Изображение

Королевский роман
En kongelig affaere


Год выпуска: 2012
Страна: Дания, Швеция, Чехия
Слоган: «They changed a nation forever»
Жанр: драма, мелодрама, история
Продолжительность: 02:17:32
Перевод: Профессиональный (многоголосый, закадровый) Лицензия
Режиссер: Николай Арсел
Сценарий: Расмус Хейстерберг, Николай Арсел, Bodil Steensen-Leth
Продюсер: Луиз Вест, Мета Луиза Фольдагер, Сиссе Граум Олсен, Джессика Аск, Кристина Корнум
Оператор: Расмус Видебак
Композитор: Сирилль Офорт, Габриэль Яред
В ролях: Алисия Викандер, Мадс Миккельсен, Миккель Фольсгаард, Трине Дюрхольм, Давид Денсик, Томас В. Габриэльссон, Сайрон Бьорк Мелвиль, Бент Мейдинг, Харриет Уолтер, Лаура Бро, Сорен Мэллинг, Якоб Ульрик Ломанн
Сборы в США: $585 872
Сборы в мире: $6 633 804
Мировая премьера: 16 февраля 2012
Релиз на DVD: 12 декабря 2012, «Вольга»
Описание: Действие картины происходит в начале 1770-х годов в Дании. Датский король Кристиан VII, страдающий серьезным психическим заболеванием, предпочитает проводить время в притонах Копенгагена, вызывая тем самым ненависть юной королевы Каролины Матильды.
Вскоре в свите короля появляется молодой германский доктор Иоганн Фридрих Струэнзе, сумевший благотворно повлиять на Кристиана VII и, завоевав его доверие, получить ряд государственных постов. Струэнзе сближается и с Каролиной Матильдой. Но королева-мать Юлиана Мария не может смириться с таким положением дел.


Изображение User Rating: 7.753 (609)
Изображение User Rating: 7.50 (4 547)
MPAA: R - Лицам до 17 лет обязательно присутствие взрослого
Релиз группы: Изображение
Раздача группы: Изображение
Изображение
Качество: BDRip 1080p
Формат: MKV
Видео: MPEG-4 AVC, 8723 Кбит/с, 1920x816
Аудио: Русский (DTS, 6 ch, 755 Кбит/с), датский (DTS, 6 ch, 1510 Кбит/с)
mediainfo
General
Unique ID : 181376603357542751000439746830031111037 (0x8873DCF82B2FBFB2A4395AB0B87BC37D)
Complete name : Korolevskij.roman.2012.P.BDRip.1080p.IRONCLUB.mkv
Format : Matroska
Format version : Version 2
File size : 10.6 GiB
Duration : 2h 17mn
Overall bit rate : 11.0 Mbps
Movie name : IRONCLUB
Encoded date : UTC 2012-12-26 08:48:04
Writing application : mkvmerge v5.2.0 ('I can't explain') built on Dec 18 2011 18:12:03
Writing library : libebml v1.2.3 + libmatroska v1.3.0

Video
ID : 1
Format : AVC
Format/Info : Advanced Video Codec
Format profile : High@L4.1
Format settings, CABAC : Yes
Format settings, ReFrames : 5 frames
Codec ID : V_MPEG4/ISO/AVC
Duration : 2h 17mn
Bit rate : 8 723 Kbps
Width : 1 920 pixels
Height : 816 pixels
Display aspect ratio : 2.35:1
Frame rate : 24.000 fps
Color space : YUV
Chroma subsampling : 4:2:0
Bit depth : 8 bits
Scan type : Progressive
Bits/(Pixel*Frame) : 0.232
Stream size : 8.17 GiB (77%)
Title : A.Royal.Affair.2012.1080p.BluRay.x264-PFa
Writing library : x264 core 129 r2230 1cffe9f
Encoding settings : cabac=1 / ref=5 / deblock=1:0:0 / analyse=0x3:0x133 / me=umh / subme=8 / psy=1 / psy_rd=1.00:0.00 / mixed_ref=1 / me_range=16 / chroma_me=1 / trellis=1 / 8x8dct=1 / cqm=0 / deadzone=21,11 / fast_pskip=0 / chroma_qp_offset=-2 / threads=12 / lookahead_threads=2 / sliced_threads=0 / nr=0 / decimate=1 / interlaced=0 / bluray_compat=0 / constrained_intra=0 / bframes=3 / b_pyramid=2 / b_adapt=1 / b_bias=0 / direct=1 / weightb=1 / open_gop=0 / weightp=2 / keyint=250 / keyint_min=24 / scenecut=40 / intra_refresh=0 / rc_lookahead=40 / rc=2pass / mbtree=1 / bitrate=8723 / ratetol=1.0 / qcomp=0.60 / qpmin=0 / qpmax=69 / qpstep=4 / cplxblur=20.0 / qblur=0.5 / ip_ratio=1.40 / aq=1:1.00
Language : English
Default : Yes
Forced : Yes

Audio #1
ID : 2
Format : DTS
Format/Info : Digital Theater Systems
Codec ID : A_DTS
Duration : 2h 17mn
Bit rate mode : Constant
Bit rate : 755 Kbps
Channel(s) : 6 channels
Channel positions : Front: L C R, Side: L R, LFE
Sampling rate : 48.0 KHz
Bit depth : 24 bits
Compression mode : Lossy
Stream size : 742 MiB (7%)
Title : DTS 5.1 @ 768 kbps - MVO, R5
Language : Russian
Default : Yes
Forced : Yes

Audio #2
ID : 3
Format : DTS
Format/Info : Digital Theater Systems
Codec ID : A_DTS
Duration : 2h 17mn
Bit rate mode : Constant
Bit rate : 1 510 Kbps
Channel(s) : 6 channels
Channel positions : Front: L C R, Side: L R, LFE
Sampling rate : 48.0 KHz
Bit depth : 16 bits
Compression mode : Lossy
Stream size : 1.45 GiB (14%)
Title : DTS 5.1 @ 1536 kbps
Default : No
Forced : No

Text
ID : 4
Format : UTF-8
Codec ID : S_TEXT/UTF8
Codec ID/Info : UTF-8 Plain Text
Language : English
Default : No
Forced : No

Свернуть
Скриншоты

Изображение
Изображение
Изображение
Изображение
Свернуть
_________________
ИзображениеИзображение Изображение
Изображение
 di-ys1 нравится это.
Не в сети
Профиль  
 Добавлено: 2012-12-26 16:00 (спустя 2 часа 8 минут)
Стаж: 5 лет 8 месяцев
Сообщений: 94
спасибо за раздачу
Не в сети
Профиль  
 Добавлено: 2012-12-26 16:06 (спустя 5 минут)
Аватара пользователя
Стаж: 4 года 1 месяц
Возраст: 21
Сообщений: 1360
Лайков: 7
как фильм? Есть смысл?
_________________
Если ты это читаешь, значит ты неудачник.
Не в сети
Профиль  
 Добавлено: 2012-12-27 08:04 (спустя 15 часов)
Аватара пользователя
Стаж: 7 лет
Сообщений: 107
Лайков: 1
Как фильм?
Не в сети
Профиль  
 Добавлено: 2013-01-14 17:38 (спустя 18 дней)
Кинокомментатор
Аватара пользователя
Стаж: 9 лет 1 месяц
Сообщений: 1332
Лайков: 54
Не знаю на сколько исторически честно данное произведение, но с художественной точки зрения, внимание оно точно достойно! после получаса спать не тянет, смотрится всё довольно интересно, хорошие актёры, да всё пропитано духом того времени, веришь во всё! если возникает вопрос смотреть или нет, при том, что Вы прочитали описание и жанр... то конечно смотрите! мне понравилось! политика монархии в чистом виде, не тонкая, не хитрая, прямая и суровая!
_________________
Я ВКонтакте
Не в сети
Профиль  
 Добавлено: 2013-01-17 19:09 (спустя 3 дня)
Стаж: 7 лет 8 месяцев
Сообщений: 105

aport:

Как фильм?
бл%ть скачай и посмотри а не тупые вопросы задавай.
фильм афигенный
Не в сети
Профиль  
Начать новую темуОтветить на тему  [ Сообщений: 6 ] 
Вы не можете начинать темы
Вы не можете отвечать на сообщения
Вы не можете редактировать свои сообщения
Вы не можете удалять свои сообщения