Правила форума

  • В этом разделе создание новых тем Запрещено.
  • Для создания новых тем пользуйтесь Корневым разделом DVD и HD фильмы.
Начать новую темуОтветить на тему  [ Сообщений: 9 ] 
Торрент файл
Размер: 6.52 GB • Зарегистрирован: 2 года 11 месяцев • Статус: T Временный релиз
Скачан: 20 раз • Желающих скачать: 0 • Поблагодарили: 20 раз
 Раздают: 0  |  0 KB/s  ]   Качают: 0  |  0 KB/s  ] 
 Полного источника не было 5 дней 
Сообщения
 Добавлено: 2013-12-31 14:41
Книголюб
Аватара пользователя
Стаж: 7 лет 2 месяца
Сообщений: 2823
Спасибок: 48826
Лайков: 73
Королевство викингов
Vikingdom

«Он хотел владеть миром»

Изображение


Год выпуска: 2013
Страна: США, Малайзия
Жанр: приключения, фэнтези, боевик
Продолжительность: 01:54:26
Перевод: Профессиональный (многоголосый закадровый)

Режиссёр: Исри Крю
В ролях: Доминик Пёрселл, Наташа Мальте, Крэйг Фэйрбрасс, Джон Фу, Конан Стивенс, Джесси Мосс, Теган Мосс, Патрик Мюррей, Байрон Гибсон, Тревор Коппола
Описание: Воин, пытающийся забыть жестокость своего прошлого, вынужден вновь взять в руки меч, чтобы сразиться с невообразимой силы божеством.
Мировая премьера: 12 сентября 2013
Бюджет: $15 600 000
Изображение 3.874231

Качество: HQRip-AVC
Формат: MKV
Видео кодек: H264 (AVC)
Аудио кодек: AC3 (Dolby Digital)
Видео: 1280x690 23.976fps 7 000 Kbps
Аудио #1: RUS:AC3 48000Hz 6ch 384 Kbps
Аудио #2: ENG: DTS 48000Hz 6ch 755 Kbps
MediaInfo
General
Unique ID : 213002385936845290665033525096335558244 (0xA03EC46FC0001859ACDFB474B3284664)
Complete name : K:\Torrent\Vikingdom.mkv
Format : Matroska
Format version : Version 2
File size : 6.52 GiB
Duration : 1h 54mn
Overall bit rate : 8 148 Kbps
Encoded date : UTC 2013-12-29 17:52:00
Writing application : mkvmerge v4.9.1 ('Ich will') built on Jul 11 2011 23:53:15
Writing library : libebml v1.2.1 + libmatroska v1.1.1

Video
ID : 1
Format : AVC
Format/Info : Advanced Video Codec
Format profile : High@L4.1
Format settings, CABAC : Yes
Format settings, ReFrames : 9 frames
Codec ID : V_MPEG4/ISO/AVC
Duration : 1h 54mn
Bit rate : 7 000 Kbps
Width : 1 280 pixels
Height : 690 pixels
Display aspect ratio : 1.855
Frame rate : 23.976 fps
Color space : YUV
Chroma subsampling : 4:2:0
Bit depth : 8 bits
Scan type : Progressive
Bits/(Pixel*Frame) : 0.331
Stream size : 5.48 GiB (84%)
Writing library : x264 core 136 r2348+704+51 d1baef6 tMod [8-bit@all X86_64]
Encoding settings : cabac=1 / ref=9 / deblock=1:-2:-2 / analyse=0x3:0x133 / me=umh / subme=11 / psy=1 / fade_compensate=0.00 / psy_rd=1.05:0.10 / mixed_ref=1 / me_range=32 / chroma_me=1 / trellis=2 / 8x8dct=1 / cqm=0 / deadzone=21,11 / fast_pskip=0 / chroma_qp_offset=-3 / threads=12 / lookahead_threads=2 / sliced_threads=0 / nr=0 / decimate=0 / interlaced=0 / bluray_compat=0 / constrained_intra=0 / fgo=0 / bframes=8 / b_pyramid=2 / b_adapt=2 / b_bias=0 / direct=3 / weightb=1 / open_gop=0 / weightp=2 / keyint=250 / keyint_min=23 / scenecut=40 / intra_refresh=0 / rc=2pass / mbtree=0 / bitrate=7000 / ratetol=1.0 / qcomp=0.75 / qpmin=0:0:0 / qpmax=69:69:69 / qpstep=4 / cplxblur=20.0 / qblur=0.5 / ip_ratio=1.40 / pb_ratio=1.30 / aq=3:0.80 / aq-sensitivity=10.00 / aq-factor=1.00:1.00:1.00 / aq2=0 / aq3=0
Language : English
Default : Yes
Forced : No
Matrix coefficients : BT.709-5, BT.1361, IEC 61966-2-4 709, SMPTE RP177

Audio #1
ID : 2
Format : AC-3
Format/Info : Audio Coding 3
Mode extension : CM (complete main)
Codec ID : A_AC3
Duration : 1h 54mn
Bit rate mode : Constant
Bit rate : 384 Kbps
Channel(s) : 6 channels
Channel positions : Front: L C R, Side: L R, LFE
Sampling rate : 48.0 KHz
Bit depth : 16 bits
Compression mode : Lossy
Stream size : 315 MiB (5%)
Language : Russian
Default : Yes
Forced : No

Audio #2
ID : 3
Format : DTS
Format/Info : Digital Theater Systems
Codec ID : A_DTS
Duration : 1h 54mn
Bit rate mode : Constant
Bit rate : 755 Kbps
Channel(s) : 6 channels
Channel positions : Front: L C R, Side: L R, LFE
Sampling rate : 48.0 KHz
Bit depth : 16 bits
Compression mode : Lossy
Stream size : 618 MiB (9%)
Language : English
Default : No
Forced : No

Text #1
ID : 4
Format : UTF-8
Codec ID : S_TEXT/UTF8
Codec ID/Info : UTF-8 Plain Text
Language : Romanian
Default : No
Forced : No

Text #2
ID : 5
Format : UTF-8
Codec ID : S_TEXT/UTF8
Codec ID/Info : UTF-8 Plain Text
Language : English
Default : No
Forced : No

Menu
00:00:00.000 : en:00:00:00.000
00:09:17.182 : en:00:09:17.182
00:20:31.147 : en:00:20:31.147
00:30:28.493 : en:00:30:28.493
00:39:43.006 : en:00:39:43.006
00:48:20.397 : en:00:48:20.397
00:58:42.227 : en:00:58:42.227
01:07:43.851 : en:01:07:43.851
01:16:24.747 : en:01:16:24.747
01:23:18.327 : en:01:23:18.327
01:33:51.209 : en:01:33:51.209
01:43:50.724 : en:01:43:50.724


Свернуть

Скриншоты
Изображение
Изображение
Изображение
Свернуть
Не в сети
Профиль  
 Добавлено: 2013-12-31 15:08 (спустя 27 минут)
Стаж: 6 лет 2 месяца
Возраст: 23
Сообщений: 40
Спасибок: 4
На первом скрине Риана?
_________________
Orange :)
Не в сети
Профиль  
 Добавлено: 2013-12-31 15:48 (спустя 39 минут)
Стаж: 7 лет 8 месяцев
Сообщений: 20
ВСЕХ С НСТУПАЮЩИМ ПРАЗДНИКОМ.
Не в сети
Профиль  
 Добавлено: 2013-12-31 16:54 (спустя 1 час 6 минут)
Стаж: 7 лет 8 месяцев
Сообщений: 10
первый скрин ваще :sh_ok: из за него смотреть не буду
Не в сети
Профиль  
 Добавлено: 2013-12-31 20:40 (спустя 3 часа)
Аватара пользователя
Стаж: 7 лет 5 месяцев
Сообщений: 21
Спасибок: 159
ФИЛЬМ ГЛЮЧИТ
Не в сети
Профиль  
 Добавлено: 2014-01-01 00:44 (спустя 4 часа)
Стаж: 7 лет
Сообщений: 116
Лайков: 2

Димаn:

первый скрин ваще :sh_ok: из за него смотреть не буду
да лана это прапрапрапрадед джигурды тока в гриме
Не в сети
Профиль  
 Добавлено: 2014-01-04 10:09 (спустя 3 дня)
Аватара пользователя
Стаж: 7 лет 11 месяцев
Сообщений: 995
Лайков: 74

eccentric93:

На первом скрине Риана?

и на третьем тоже)
Не в сети
Профиль  
 Добавлено: 2014-01-04 11:04 (спустя 54 минуты)
Стаж: 6 лет 6 месяцев
Сообщений: 1
прапрапрапрабабуля джигурды
Не в сети
Профиль  
 Добавлено: 2014-01-05 17:06 (спустя 1 день 6 часов)
Аватара пользователя
Стаж: 7 лет 9 месяцев
Сообщений: 12
прапрапрапрабабуля джигурды
:-D
Не в сети
Профиль  
Начать новую темуОтветить на тему  [ Сообщений: 9 ] 
Вы не можете начинать темы
Вы не можете отвечать на сообщения
Вы не можете редактировать свои сообщения
Вы не можете удалять свои сообщения