Правила форума

  • В этом разделе создание новых тем Запрещено.
  • Для создания новых тем пользуйтесь Корневым разделом DVD и HD фильмы.
Начать новую темуОтветить на тему  [ Сообщений: 2 ] 
Торрент файл
Размер: 4.63 GB • Зарегистрирован: 3 года 10 месяцев • Статус: Проверено
Скачан: 22 раза • Желающих скачать: 0 • Поблагодарили: 3 раза
 Раздают: 0  |  0 KB/s  ]   Качают: 0  |  0 KB/s  ] 
 Полного источника не было 2 года 7 месяцев 
Сообщения
 Добавлено: 2013-02-01 12:57
Книголюб
Аватара пользователя
Стаж: 7 лет 2 месяца
Сообщений: 2823
Спасибок: 48824
Лайков: 73
Короли рулетки
The Pelayos

Изображение


Год выпуска: 2012
Страна: Испания
Жанр: Боевик, Драма
Продолжительность: 01:37:12
Перевод: Профессиональный (многоголосый закадровый)
Субтитры: Английские

Режиссёр: Эдуард Кортес
В ролях: Даниэль Брюль, Соня Касадемонт, Чи Чуй, Эдуард Фернандес, Льюис Омар, Ферран Лаоз, Рачель Ласкар, Мика Луна, Винсент Ромеро, Марина Салас
Описание: Авантюрная история, снятая по мотивам реальных событий, рассказывает о клане Пелайо. Члены этой Семьи — большие мастера рулетки и карт честным путем обыгрывали казино по всему миру. Благодаря своим незаурядным талантам, они заработали много денег и даже «увековечились» в названии школы покера.
Мировая премьера: 21.04.2012
Изображение 5.668597

Качество: BDRip, 720p
Формат: MKV
Видео кодек: H264 (AVC)
Аудио кодек: DTS 1 510 Kbps
Видео: 1280x528 25fps
Аудио #1: Russian: Dolby AC3 48000Hz 6ch 384 Kbps
Аудио #2: Spanish: DTS 48000Hz 6ch
Субтитры: Russian, English
MediaInfo
General
Unique ID : 251572647578765071040939832204737644772 (0xBD432127F71DD894BD844809BADC08E4)
Complete name : K:\Torrent\Koroli.ruletki..mkv
Format : Matroska
Format version : Version 2
File size : 4.63 GiB
Duration : 1h 37mn
Overall bit rate : 6 813 Kbps
Movie name : IRONCLUB
Encoded date : UTC 2013-01-31 12:31:10
Writing application : mkvmerge v5.2.0 ('I can't explain') built on Dec 18 2011 18:12:03
Writing library : libebml v1.2.3 + libmatroska v1.3.0

Video
ID : 1
Format : AVC
Format/Info : Advanced Video Codec
Format profile : High@L4.1
Format settings, CABAC : Yes
Format settings, ReFrames : 5 frames
Codec ID : V_MPEG4/ISO/AVC
Duration : 1h 37mn
Bit rate : 4 922 Kbps
Width : 1 280 pixels
Height : 528 pixels
Display aspect ratio : 2.40:1
Frame rate : 25.000 fps
Color space : YUV
Chroma subsampling : 4:2:0
Bit depth : 8 bits
Scan type : Progressive
Bits/(Pixel*Frame) : 0.291
Stream size : 3.25 GiB (70%)
Title : The.Pelayos.2012.720p.BluRay.x264.DTS-KeN
Writing library : x264 core 128
Encoding settings : cabac=1 / ref=5 / deblock=1:0:0 / analyse=0x3:0x133 / me=umh / subme=8 / psy=1 / psy_rd=1,00:0,00 / mixed_ref=1 / me_range=16 / chroma_me=1 / trellis=2 / 8x8dct=1 / cqm=0 / deadzone=21,11 / fast_pskip=1 / chroma_qp_offset=-2 / threads=3 / lookahead_threads=1 / sliced_threads=0 / nr=0 / decimate=1 / interlaced=0 / bluray_compat=0 / constrained_intra=0 / bframes=3 / b_pyramid=2 / b_adapt=2 / b_bias=0 / direct=1 / weightb=1 / open_gop=0 / weightp=2 / keyint=250 / keyint_min=25 / scenecut=40 / intra_refresh=0 / rc_lookahead=40 / rc=2pass / mbtree=1 / bitrate=4922 / ratetol=1,0 / qcomp=0,60 / qpmin=4 / qpmax=69 / qpstep=4 / cplxblur=20,0 / qblur=0,5 / ip_ratio=1,40 / aq=1:1,00
Language : Spanish
Default : Yes
Forced : Yes
Color primaries : BT.709-5, BT.1361, IEC 61966-2-4, SMPTE RP177
Transfer characteristics : BT.709-5, BT.1361
Matrix coefficients : BT.709-5, BT.1361, IEC 61966-2-4 709, SMPTE RP177

Audio #1
ID : 2
Format : AC-3
Format/Info : Audio Coding 3
Mode extension : CM (complete main)
Codec ID : A_AC3
Duration : 1h 37mn
Bit rate mode : Constant
Bit rate : 384 Kbps
Channel(s) : 6 channels
Channel positions : Front: L C R, Side: L R, LFE
Sampling rate : 48.0 KHz
Bit depth : 16 bits
Compression mode : Lossy
Stream size : 267 MiB (6%)
Title : DD 5.1 @ 384 kbps - MVO, R5
Language : Russian
Default : Yes
Forced : Yes

Audio #2
ID : 3
Format : DTS
Format/Info : Digital Theater Systems
Codec ID : A_DTS
Duration : 1h 37mn
Bit rate mode : Constant
Bit rate : 1 510 Kbps
Channel(s) : 6 channels
Channel positions : Front: L C R, Side: L R, LFE
Sampling rate : 48.0 KHz
Bit depth : 24 bits
Compression mode : Lossy
Stream size : 1.03 GiB (22%)
Title : DTS 5.1 @1536 Kbps
Language : Spanish
Default : No
Forced : No

Text #1
ID : 4
Format : UTF-8
Codec ID : S_TEXT/UTF8
Codec ID/Info : UTF-8 Plain Text
Title : R5
Language : Russian
Default : No
Forced : No

Text #2
ID : 5
Format : UTF-8
Codec ID : S_TEXT/UTF8
Codec ID/Info : UTF-8 Plain Text
Language : English
Default : No
Forced : No


Свернуть

Скриншоты
Изображение
Изображение
Изображение
Изображение
Свернуть
Не в сети
Профиль  
 Добавлено: 2013-02-01 16:43 (спустя 3 часа)
Модератор
Аватара пользователя
Стаж: 6 лет 10 месяцев
Возраст: 33
Сообщений: 5908
Спасибок: 61255
Лайков: 3540
Не понравился фильм.
_________________
ИзображениеИзображение Изображение
Изображение
Не в сети
Профиль  
Начать новую темуОтветить на тему  [ Сообщений: 2 ] 
Вы не можете начинать темы
Вы не можете отвечать на сообщения
Вы не можете редактировать свои сообщения
Вы не можете удалять свои сообщения