Правила форума

  • В этом разделе создание новых тем Запрещено.
  • Для создания новых тем пользуйтесь Корневым разделом DVD и HD фильмы.
Начать новую темуОтветить на тему  [ Сообщений: 3 ] 
Торрент файл
Размер: 6.81 GB • Зарегистрирован: 5 лет 6 месяцев • Статус: Проверено
Скачан: 120 раз • Желающих скачать: 0 • Поблагодарили: 14 раз
 Раздают: 0  |  0 KB/s  ]   Качают: 0  |  0 KB/s  ] 
 Полного источника не было 3 года 
Сообщения
 Добавлено: 2011-06-07 11:15
Модератор
Аватара пользователя
Стаж: 8 лет 1 месяц
Возраст: 20
Сообщений: 32130
Спасибок: 98569
Лайков: 80
Изображение

Короли улиц 2 / Street Kings 2: Motor City


Год выпуска: 2011
Страна: США

Жанр: боевик, драма, криминал
Продолжительность: 01:32:22
Перевод: Оригинальный, Субтитры, Профессиональный (многоголосый, закадровый) [лицензия]

Режиссер: Крис Фишер / Chris Fisher
В ролях: Рэй Лиотта, Шон Хэтоси, Скотт Норман, Клифтон Пауэлл, Кевин Чэпмен, Инбар Лави, Шарлотта Росс, Стефани Коттон, Линда Бостон, Кори Эмануэл Уилсон...

Мировая премьера: 19 апреля 2011
Релиз на DVD: 7 июля 2011, «Двадцатый Век Фокс СНГ»
Релиз на Blu-ray: 7 июля 2011, «Двадцатый Век Фокс СНГ»
Описание: Рэй Лиотта обеспечивает интенсивную и напряженную работу в этом взрывчатом продолжении городского криминального триллера Короли улиц. Лиотта играет Детройтского детектива Марти Кингстона, лидера полицейских под прикрытием, которые были систематически убиты один за другим. Чтобы раскрыть зверские убийства, Кингстон объединяет свои усилия с дерзким и молодым детективом из отдела по расследованиям убийств. Но ни один из них не готов к шокирующей коррупции, их расследования будут раскрывать ошеломленные тайны, которые заставят столкнуться их с предательством и местью.
Изображение
MPAA: Изображение - Лицам до 17 лет обязательно присутствие взрослого
Качество: BDRip 1080p R2
Формат: Matroska

Видео: 1920x1080 (16:9), 23.976 fps, H264 ~8657 Кбит/сек avg, 0.174 bit/pixel
Аудио 1: Изображение Русский, 48 kHz, АС3, 6 ch, 384.00 kbps Constant
Аудио 2: Изображение Английский, 48 kHz, DTS, 6 ch, 1536.00 kbps Constant
Формат субтитров: SoftSub (Srt)
Изображение
MediaInfo
Общее
Полное имя : Koroli.ulits.2.2011.P.BDRip.1080p.mkv
Формат : Matroska
Размер файла : 6,81 Гбайт
Продолжительность : 1 ч. 32 м.
Общий поток : 10,6 Мбит/сек
Название фильма : Street.Kings.Motor.City.2011.Unrated.Blu-ray.1080p.DTS.x264-NiP
Дата кодирования : UTC 2011-06-06 20:50:54
Программа кодирования : mkvmerge v4.8.0 ('I Got The...') сборка от May 24 2011 03:12:58
Библиотека кодирования : libebml v1.2.0 + libmatroska v1.1.0
Видео
Идентификатор : 1
Формат : AVC
Формат/Информация : Advanced Video Codec
Профиль формата : High@L4.1
Параметр CABAC формата : Да
Параметр ReFrames формата : 4 кадра
Идентификатор кодека : V_MPEG4/ISO/AVC
Продолжительность : 1 ч. 32 м.
Битрейт : 8657 Кбит/сек
Ширина : 1920 пикс.
Высота : 1080 пикс.
Соотношение сторон : 16:9
Частота кадров : 23,976 кадр/сек
Цветовое пространство : YUV
Подвыборка цветности : 4:2:0
Битовая глубина : 8 бит
Тип развёртки : Прогрессивная
Бит/(Пиксели*Кадры) : 0.174
Размер потока : 5,45 Гбайт (80%)
Библиотека кодирования : x264 core 114 r1924 08d04a4
Настройки программы : cabac=1 / ref=4 / deblock=1:-3:-3 / analyse=0x3:0x113 / me=tesa / subme=10 / psy=1 / psy_rd=1.00:0.00 / mixed_ref=1 / me_range=24 / chroma_me=1 / trellis=2 / 8x8dct=1 / cqm=0 / deadzone=21,11 / fast_pskip=0 / chroma_qp_offset=-2 / threads=12 / sliced_threads=0 / nr=0 / decimate=0 / interlaced=0 / constrained_intra=0 / bframes=8 / b_pyramid=2 / b_adapt=2 / b_bias=0 / direct=3 / weightb=1 / open_gop=0 / weightp=2 / keyint=250 / keyint_min=23 / scenecut=40 / intra_refresh=0 / rc_lookahead=60 / rc=2pass / mbtree=0 / bitrate=8657 / ratetol=1.0 / qcomp=0.60 / qpmin=10 / qpmax=51 / qpstep=4 / cplxblur=20.0 / qblur=0.5 / vbv_maxrate=50000 / vbv_bufsize=62500 / nal_hrd=none / ip_ratio=1.40 / pb_ratio=1.30 / aq=2:0.90
Язык : English
Коэффициенты матрицы : BT.709-5, BT.1361, IEC 61966-2-4 709, SMPTE RP177
Аудио #1
Идентификатор : 2
Формат : AC-3
Формат/Информация : Audio Coding 3
Расширение режима : CM (complete main)
Идентификатор кодека : A_AC3
Продолжительность : 1 ч. 32 м.
Вид битрейта : Постоянный
Битрейт : 384 Кбит/сек
Каналы : 6 каналов
Расположение каналов : Front: L C R, Side: L R, LFE
Частота : 48,0 КГц
Битовая глубина : 16 бит
Метод сжатия : С потерями
Размер потока : 254 Мбайт (4%)
Язык : Russian
Аудио #2
Идентификатор : 3
Формат : DTS
Формат/Информация : Digital Theater Systems
Идентификатор кодека : A_DTS
Продолжительность : 1 ч. 32 м.
Вид битрейта : Постоянный
Битрейт : 1510 Кбит/сек
Каналы : 6 каналов
Расположение каналов : Front: L C R, Side: L R, LFE
Частота : 48,0 КГц
Битовая глубина : 24 бит
Метод сжатия : С потерями
Задержка видео : 11 мс.
Размер потока : 998 Мбайт (14%)
Язык : English
Текст #1
Идентификатор : 4
Формат : UTF-8
Идентификатор кодека : S_TEXT/UTF8
Идентификатор кодека/Информация : UTF-8 Plain Text
Язык : Russian
Текст #2
Идентификатор : 5
Формат : UTF-8
Идентификатор кодека : S_TEXT/UTF8
Идентификатор кодека/Информация : UTF-8 Plain Text
Заголовок : SDH
Язык : English
Меню
00:00:00.000 : :00:00:00.000
00:05:44.302 : :00:05:44.302
00:08:09.280 : :00:08:09.280
00:11:21.931 : :00:11:21.931
00:14:50.890 : :00:14:50.890
00:17:24.377 : :00:17:24.377
00:20:38.946 : :00:20:38.946
00:23:28.115 : :00:23:28.115
00:28:02.389 : :00:28:02.389
00:30:19.026 : :00:30:19.026
00:32:21.022 : :00:32:21.022
00:34:30.568 : :00:34:30.568
00:37:40.633 : :00:37:40.633
00:42:05.606 : :00:42:05.606
00:46:14.647 : :00:46:14.647
00:51:32.464 : :00:51:32.464
00:54:19.673 : :00:54:19.673
00:59:17.971 : :00:59:17.971
01:06:48.671 : :01:06:48.671
01:09:55.191 : :01:09:55.191
01:13:31.449 : :01:13:31.449
01:18:10.102 : :01:18:10.102
01:22:34.908 : :01:22:34.908
01:26:09.289 : :01:26:09.289
Свернуть
Скриншоты
Изображение

Изображение

Изображение
Свернуть
Не в сети
Профиль  
 Добавлено: 2011-08-24 07:50 (спустя 2 месяца 16 дней)
Аватара пользователя
Стаж: 7 лет 11 месяцев
Сообщений: 786
Спасибок: 25
Лайков: 9
Скачаю :men:
Не в сети
Профиль  
 Добавлено: 2011-10-08 18:55 (спустя 1 месяц 15 дней)
Стаж: 7 лет 8 месяцев
Сообщений: 105
на 3 , как то не очень понравилось...
Не в сети
Профиль  
Начать новую темуОтветить на тему  [ Сообщений: 3 ] 
Вы не можете начинать темы
Вы не можете отвечать на сообщения
Вы не можете редактировать свои сообщения
Вы не можете удалять свои сообщения